Loading...
Error

Скачать Наполеон / Napoléon (Саша Гитри / Sacha Guitry) [1955, драма, DVDRip] [MVO] торрент без регистрации

 
Статистика раздачи
Размер:  2,19 GB   |    Скачан:  140 раз

Полного источника не было: 1 год 1 месяц

 
Автор Сообщение

leon030982

[] 

Наполеон / Napoléon
Страна: Франция, Италия
Жанр: Драма
Год выпуска: 1955
Продолжительность: 03:05:00
Перевод: Профессиональный (многоголосый закадровый)
Cубтитры: нет
Режиссер: Саша Гитри / Sacha Guitry
В ролях: Жан-Пьер Омон, Жанна Буатель, Пьер Брассёр, Джанна Мария Канале, Полин Картон, Жан Шеврье, Даниель Дарьё, Клемен Дюур, Жак Дюмениль, О.В. Фишер
Описание: «Он родился на острове, мечтал всю жизнь покорить остров, и умер против своей воли на острове» — так начинает свой рассказ князь Талейран, из уст которого Вы узнаете достоверную историю жизни великого императора и полководца Франции Наполеона Бонапарта, историю от самого дня рождения до дня смерти в изгнании на острове Эльба. Это наиболее полная история жизни одной из самых неординарных личностей нашей эпохи.

Доп. информация: Данный DVDRip сделан из 2xDVD5, за которые, огромнейшее спасибо "Нордер"!!!
Сэмпл: http://multi-up.com/639134
Качество видео: DVDRip
Формат видео: AVI
Видео: 640x480 (1.33:1), 25 fps, XviD build 50, 1495 kbps avg, 0.19 bit/pixel
Аудио: Russian: 48 kHz, AC3 Dolby Digital, 2/0 (L,R) ch, 192.00 kbps avg
General
Complete name : E:\Мои раздачи\Napoleon_RG_All_Films.avi
Format : AVI
Format/Info : Audio Video Interleave
Format profile : OpenDML
File size : 2.19 GiB
Duration : 3h 5mn
Overall bit rate : 1 694 Kbps
Writing application : VirtualDubMod 1.6.0.0 SURROUND (build 2560/release)
Writing library : VirtualDubMod build 2560/release
Video
ID : 0
Format : MPEG-4 Visual
Format profile : Advanced Simple@L5
Format settings, BVOP : Yes
Format settings, QPel : No
Format settings, GMC : No warppoints
Format settings, Matrix : Custom
Codec ID : XVID
Codec ID/Hint : XviD
Duration : 3h 5mn
Bit rate : 1 490 Kbps
Width : 640 pixels
Height : 480 pixels
Display aspect ratio : 4:3
Frame rate : 25.000 fps
Color space : YUV
Chroma subsampling : 4:2:0
Bit depth : 8 bits
Scan type : Progressive
Compression mode : Lossy
Bits/(Pixel*Frame) : 0.194
Stream size : 1.93 GiB (88%)
Writing library : XviD 1.2.1 (UTC 2008-12-04)
Audio
ID : 1
Format : AC-3
Format/Info : Audio Coding 3
Mode extension : CM (complete main)
Codec ID : 2000
Duration : 3h 5mn
Bit rate mode : Constant
Bit rate : 192 Kbps
Channel(s) : 2 channels
Channel positions : Front: L R
Sampling rate : 48.0 KHz
Bit depth : 16 bits
Compression mode : Lossy
Stream size : 254 MiB (11%)
Alignment : Split accross interleaves
Interleave, duration : 40 ms (1.00 video frame)
Interleave, preload duration : 500 ms



Скачать Наполеон.Napoléon.(Саша.Гитри.Sacha.Guitry).[1955.драма.DVDRip].[MVO].torrent без регистрации
Золото ЗОЛОТАЯ РАЗДАЧА! СКАЧАННОЕ НЕ ЗАСЧИТЫВАЕТСЯ! Золото
Дата: Зарегистрирован   [ Тип: внутренний ] Как тут cкачать?
MAGNET ссылка
MAGNET ссылка


Скачать .torrent

11 KB

Статус: проверено
Скачан: торрент - 140 раз, раздача полностью - 24 раз
Размер: 2,19 GB
Оценка:  - (Голосов: 0)
Поблагодарили: 3
Поделиться ссылкой на эту раздачу с друзьями:
В контактеFacebookОдноклассникиTwitterLivejournalМой МирLiveinternet
 

 
Показать сообщения:    


Вы не можете начинать темы
Вы не можете отвечать на сообщения
Вы не можете редактировать свои сообщения
Вы не можете удалять свои сообщения
Вы не можете голосовать в опросах
Вы не можете прикреплять файлы к сообщениям
Вы можете скачивать файлы