Loading...
Error

Скачать Космический корабль стартует / Weltraumschiff 1 startet.. (Anton Kutter / Антон Куттер) [1937, фантастика, DVDRip-AVC] [SUB] торрент без регистрации

 
Статистика раздачи
Размер:  248 MB   |    Скачан:  134 раза

Полного источника не было: 5 дней

 
Автор Сообщение

leon030982

[] 

Космический корабль стартует / Weltraumschiff 1 startet..
Страна: Германия
Жанр: фантастика
Год выпуска: 1937
Продолжительность: 00:23:09
Перевод: Субтитры от Виталий Овецкий
Cубтитры: русские
Оригинальная аудиодорожка: немецкий
Режиссер: Anton Kutter / Антон Куттер
В ролях: Фриц Рейф, Рольф Вернике, Карл Вери
Описание: Пропагандиский немецкий фильм про полет на Луну!!!
Доп. информация: в 1957 году американцы взяли этот фильм и советский мультфильм Полет на Луну и выпустили мультсериал под названием Исследователи космоса

Качество видео: DVDRip
Формат видео: MKV
Видео: Н264 640x480 23.98fps 1305 Kbps
Аудио: AC3 48000Hz stereo 192 Kbps
Формат субтитров: softsub (SRT)
1
00:00:06,000 --> 00:00:08,500
Бавария - Искусство Кино
2
00:00:09,000 --> 00:00:11,000
показывает
3
00:00:13,000 --> 00:00:19,000
Космический корабль стартует...
4
00:00:20,000 --> 00:00:22,500
Техническая фантазия
5
00:00:23,000 --> 00:00:28,000
Задумка и реализация
Антон Куттер
6
00:00:36,000 --> 00:00:43,000
В ролях:
Коммодор Хардт -- Карл Вери
Телерепортер -- Рольф Вернике
Технический директор -- Фритц Райфф
7
00:01:11,500 --> 00:01:12,500
Внимание, внимание!
8
00:01:13,000 --> 00:01:14,000
Дамы и господа
9
00:01:14,500 --> 00:01:16,000
Мы начинаем нашу телевизионную трансляцию
10
00:01:16,500 --> 00:01:20,000
с территории объединенных летательных верфей,
из Фридрисхафена на Бодензее
11
00:01:20,500 --> 00:01:21,500
Именно тот город,
12
00:01:22,000 --> 00:01:25,000
в котором более полувека назад был
построен первый гигантский дирижабль
13
00:01:25,500 --> 00:01:28,500
сегодня снова станет местом исторического
события всемирного масштаба
14
00:01:29,000 --> 00:01:30,000
Ведь, дамы и господа,
15
00:01:30,500 --> 00:01:32,000
примерно через час из нашей верфи
16
00:01:32,500 --> 00:01:36,000
стартует первый пилотируемый
космический корабль к Луне
17
00:01:36,500 --> 00:01:39,500
И, таким образом, новейшая глава
гигантского развития
18
00:01:40,000 --> 00:01:43,500
технической науки увенчается
многообещающим финалом
19
00:01:44,500 --> 00:01:48,000
Тысячелетняя мечта человечества
воплотится в жизнь
20
00:01:48,500 --> 00:01:51,000
Земные оковы падут
Format : Matroska
Format version : Version 1
File size : 248 MiB
Duration : 23mn 9s
Overall bit rate : 1 500 Kbps
Encoded date : UTC 2011-12-12 11:22:28
Writing application : mkvmerge v2.4.0 ('Fumbling Towards Ecstasy') built on Oct 11 2008 20:13:15
Writing library : libebml v0.7.7 + libmatroska v0.8.1
Video
ID : 1
Format : AVC
Format/Info : Advanced Video Codec
Format profile : High@L4.1
Format settings, CABAC : Yes
Format settings, ReFrames : 3 frames
Codec ID : V_MPEG4/ISO/AVC
Duration : 23mn 9s
Bit rate : 1 305 Kbps
Width : 640 pixels
Height : 480 pixels
Display aspect ratio : 4:3
Frame rate : 23.976 fps
Color space : YUV
Chroma subsampling : 4:2:0
Bit depth : 8 bits
Scan type : Progressive
Bits/(Pixel*Frame) : 0.177
Stream size : 212 MiB (85%)
Writing library : x264 core 65 r999kMod cc51047
Encoding settings : cabac=1 / ref=3 / deblock=1:0:0 / analyse=0x3:0x133 / me=umh / subme=6 / psy_rd=1.0:0.0 / mixed_ref=1 / me_range=16 / chroma_me=1 / trellis=2 / 8x8dct=1 / cqm=0 / deadzone=21,11 / chroma_qp_offset=-2 / threads=2 / thread_queue=2 / nr=0 / decimate=1 / mbaff=0 / bframes=3 / b_pyramid=1 / b_adapt=1 / b_bias=0 / direct=3 / wpredb=1 / keyint=250 / keyint_min=25 / scenecut=40(pre) / rc=2pass / bitrate=1305 / ratetol=1.0 / qcomp=0.60 / qpmin=10 / qpmax=51 / qpstep=4 / cplxblur=20.0 / qblur=0.5 / ip_ratio=1.40 / pb_ratio=1.30 / aq=1:1.00
Default : Yes
Forced : No
Audio
ID : 2
Format : AC-3
Format/Info : Audio Coding 3
Mode extension : CM (complete main)
Codec ID : A_AC3
Duration : 23mn 9s
Bit rate mode : Constant
Bit rate : 192 Kbps
Channel(s) : 2 channels
Channel positions : Front: L R
Sampling rate : 48.0 KHz
Bit depth : 16 bits
Compression mode : Lossy
Stream size : 31.8 MiB (13%)
Default : Yes
Forced : No



Скачать Космический.корабль.стартует.Weltraumschiff.1.startet.(Anton.Kutter.Антон.Куттер).[1937.фантастика.DVDRip-AVC].[SUB].torrent без регистрации
Золото ЗОЛОТАЯ РАЗДАЧА! СКАЧАННОЕ НЕ ЗАСЧИТЫВАЕТСЯ! Золото
Дата: Зарегистрирован   [ Тип: внутренний ] Как тут cкачать?
MAGNET ссылка
MAGNET ссылка


Скачать .torrent

20 KB

Статус: проверено
Скачан: торрент - 134 раз, раздача полностью - 10 раз
Размер: 248 MB
Оценка:  - (Голосов: 0)
Поблагодарили: 2
Поделиться ссылкой на эту раздачу с друзьями:
В контактеFacebookОдноклассникиTwitterLivejournalМой МирLiveinternet
 

 
Показать сообщения:    


Вы не можете начинать темы
Вы не можете отвечать на сообщения
Вы не можете редактировать свои сообщения
Вы не можете удалять свои сообщения
Вы не можете голосовать в опросах
Вы не можете прикреплять файлы к сообщениям
Вы можете скачивать файлы