Loading...
Error

Скачать Карфаген в огне / Carthage in Flames / Cartagine in fiamme / Karthago in flammen (Кармине Галлоне) [1960, Исторический, драма, DVDRip] [VO] торрент без регистрации

 
Статистика раздачи
Размер:  745 MB   |    Скачан:  208 раз
Сидов:  1  [  0 KB/s  ]  
 
Автор Сообщение

Marsianka

[] 

Название на русском: Карфаген в огне
Название в оригинале: Carthage in Flames / Cartagine in fiamme / Karthago in flammen

Страна: Франция, Италия
Жанр: Исторический, драма
Год выпуска: 1960
Продолжительность: 01:47:02
Перевод: Любительский(одноголосый,закадровый)
Субтитры: нет

Режиссёр: Кармине Галлоне / Carmine Gallone
В ролях: Пьер Брассе , Даниель Желен, Энн Хейвуд, Альдо Сильвани, Паоло Стоппа, Хосе Суарез, Теренс Хилл, Эдит Питерс

Описание фильма:
На североафриканском побережье, на пересечении коммерческих торговых путей Средиземноморья лежал гордый город Карфаген, величайший враг Рима. В 146 году до н. э. после трехлетней осады, римские легионы под предводительством Сципиона Эмилиана готовили последнюю решительную атаку на город, который в течении ста лет и трёх войн героически сопротивлялся нападениям Рима и его возрастающей силы. Во время этих событий Фульвия, женщина-римлянка, переживала свою драматическую любовную историю



Качество: DVDRip
Формат: AVI
Видео: XviD 688x288 (2.39:1), 25 fps, XviD build 50 ~835 kbps avg, 0.17
Аудио: МР3 48 kHz, MPEG Layer 3, 2 ch, ~128.00 kbps avg











Format : AVI
Format/Info : Audio Video Interleave
File size : 745 MiB
Duration : 1h 47mn
Overall bit rate : 973 Kbps
Writing application : VirtualDubMod 1.5.10.2 (build 2540/release)
Writing library : VirtualDubMod build 2540/release

Video
ID : 0
Format : MPEG-4 Visual
Format profile : Advanced Simple@L5
Format settings, BVOP : 2
Format settings, QPel : No
Format settings, GMC : No warppoints
Format settings, Matrix : Custom
Codec ID : XVID
Codec ID/Hint : XviD
Duration : 1h 47mn
Bit rate : 836 Kbps
Width : 688 pixels
Height : 288 pixels
Display aspect ratio : 2.40:1
Frame rate : 25.000 fps
Color space : YUV
Chroma subsampling : 4:2:0
Bit depth : 8 bits
Scan type : Progressive
Compression mode : Lossy
Bits/(Pixel*Frame) : 0.169
Stream size : 640 MiB (86%)
Writing library : XviD 1.2.1 (UTC 2008-12-04)

Audio
ID : 1
Format : MPEG Audio
Format version : Version 1
Format profile : Layer 3
Mode : Joint stereo
Mode extension : MS Stereo
Codec ID : 55
Codec ID/Hint : MP3
Duration : 1h 46mn
Bit rate mode : Constant
Bit rate : 128 Kbps
Channel(s) : 2 channels
Sampling rate : 48.0 KHz
Compression mode : Lossy
Stream size : 97.6 MiB (13%)
Alignment : Aligned on interleaves
Interleave, duration : 40 ms (1.00 video frame)
Interleave, preload duration : 504 ms

Релиз от: All films



Скачать Карфаген.в.огне.Carthage.in.Flames.Cartagine.in.fiamme.Karthago.in.flammen.(Кармине.Галлоне).[1960.Исторический.драма.DVDRip].[VO].torrent без регистрации
Золото ЗОЛОТАЯ РАЗДАЧА! СКАЧАННОЕ НЕ ЗАСЧИТЫВАЕТСЯ! Золото
Дата: Зарегистрирован   [ Тип: внутренний ] Как тут cкачать?
MAGNET ссылка
MAGNET ссылка


Скачать .torrent

15 KB

Статус: проверено DHT
Скачан: торрент - 208 раз, раздача полностью - 73 раз
Размер: 745 MB
Оценка:  - (Голосов: 0)
Поблагодарили: 1
Поделиться ссылкой на эту раздачу с друзьями:
В контактеFacebookОдноклассникиTwitterLivejournalМой МирLiveinternet
 

 
Показать сообщения:    


Вы не можете начинать темы
Вы не можете отвечать на сообщения
Вы не можете редактировать свои сообщения
Вы не можете удалять свои сообщения
Вы не можете голосовать в опросах
Вы не можете прикреплять файлы к сообщениям
Вы можете скачивать файлы