Loading...
Error

Скачать Бег зайца через поля / La Course du lièvre à travers les champs (Рене Клеман) [1972, триллер, драма, криминал, DVDRip] [AVO] (Гаврилов) + [MVO] торрент без регистрации

 
Статистика раздачи
Размер:  1,78 GB   |    Скачан:  121 раз
Сидов:  1  [  0 KB/s  ]  
 
Автор Сообщение

leon030982

[] 

Бег зайца через поля / La Course du lièvre à travers les champs
Страна: Франция, Италия
Жанр: триллер, драма, криминал
Год выпуска: 1972
Продолжительность: 02:15:14
Перевод 1: Авторский (одноголосый закадровый) Гаврилов
Перевод 2: Профессиональный (многоголосый закадровый) - отдельным файлом
Оригинальная аудиодорожка: французская - отдельным файлом
Cубтитры: нет
Режиссер: Рене Клеман
В ролях: Роберт Райан, Жан-Луи Трентиньян, Леа Массари, Жан Гавен, Альдо Рэй, Тиза Фэрроу, Даниэль Бретон, Андре Лоуренс, Эмманюэль Беар
Описание: Наряду с участием в экранизациях собственных романов ("Ловушка для Золушки", 1965) и сценариев ("Прощай, друг!, 1968, "Убийцы в спальных вагонах", 1965), Себастьян Жапризо (1931-2003) изредка перерабатывал для кино произведения других мастеров жанра. В частности, "Бег зайца через поля" написан по мотивам "черного" романа "Черная пятница" любимого кинематографистами США и Франции Дэвида Гудиса ("Черная полоса", 1947, "Стреляйте в пианиста", 1960, "Луна в сточной канаве", 1983). Блестящие диалоги и закрученный сюжет требовали соответствующего уровня режиссуры. И такой выдающийся мастер как Рене Клеман ("На ярком солнце", 1960, "Хищники", 1964) с блеском справился с поставленной задачей. Более того, визуальная красота этого "по-настоящему цветного" фильма, несмотря на солидный возраст, вполне сравнима с современными блокбастерами.
Герой фильма, бывший летчик Тони (Жан-Луи Трентиньян, род. 1930) — человек, оказавшийся не в том месте и не в то время. Его преследуют цыгане, считающие его виновным в смерти своих родных и жаждущие мести. Убегая от них, он попадает в эпицентр гангстерской разборки, из-за чего вскоре оказывается в загородном доме на берегу озера, в плену у загадочной банды, готовящей крупное ограбление. Несмотря на то, что он повинен в смерти одного из бандитов, их главарь Чарли (Роберт Райан, 1909-1973) постепенно проникается к нему симпатией и даже берет в подельники на место умершего друга. Причина такой странной привязанности остается тайной до самого конца этой увлекательной и немного грустной картины.

Сэмпл: http://multi-up.com/639895
Качество видео: DVDRip
Формат видео: AVI
Видео: 656x368 (16:9), 25 fps, DivX5 ~1300 kbps avg, 0.22 bit/pixel
Аудио 1: 48 kHz, AC3 Dolby Digital, 2/0 (L,R) ch, ~192.00 kbps avg (Гаврилов)
Аудио 2: 48 kHz, AC3 Dolby Digital, 2/0 (L,R) ch, ~192.00 kbps avg (MVO)
Аудио 3: 48 kHz, AC3 Dolby Digital, 2/0 (L,R) ch, ~192.00 kbps avg (French)
Общее
Полное имя : E:\Бег зайца через поле (1972)\Бег зайца через поле (Гаврилов).avi
Формат : AVI
Формат/Информация : Audio Video Interleave
Размер файла : 1,42 Гбайт
Продолжительность : 2 ч. 15 м.
Общий поток : 1501 Кбит/сек
Программа кодирования : VirtualDubModRus 1.5.10.2 (build 2542/release)
Библиотека кодирования : VirtualDubMod build 2542/release
Видео
Идентификатор : 0
Формат : MPEG-4 Visual
Профиль формата : Advanced Simple@L5
Параметр BVOP формата : 1
Параметр QPel формата : Нет
Параметр GMC формата : Без точки перехода
Параметр матрицы формата : Default (H.263)
Идентификатор кодека : DX50
Идентификатор кодека/Подсказка : DivX 5
Продолжительность : 2 ч. 15 м.
Битрейт : 1299 Кбит/сек
Ширина : 656 пикселей
Высота : 368 пикселей
Соотношение сторон : 16:9
Частота кадров : 25,000 кадров/сек
Цветовое пространство : YUV
Субдискретизация насыщенности : 4:2:0
Битовая глубина : 8 бит
Тип развёртки : Прогрессивная
Метод сжатия : С потерями
Бит/(Пиксели*Кадры) : 0.215
Размер потока : 1,23 Гбайт (87%)
Библиотека кодирования : XviD 1.2.1 (UTC 2008-12-04)
Аудио
Идентификатор : 1
Формат : AC-3
Формат/Информация : Audio Coding 3
Расширение режима : CM (complete main)
Идентификатор кодека : 2000
Продолжительность : 2 ч. 15 м.
Вид битрейта : Постоянный
Битрейт : 192 Кбит/сек
Каналы : 2 канала
Расположение каналов : Front: L R
Частота : 48,0 КГц
Битовая глубина : 16 бит
Метод сжатия : С потерями
Размер потока : 186 Мбайт (13%)
Выравнивание : Разделение по промежуткам
Продолжительность промежутка : 40 мс. (1,00 видеокадр)
Время предзагрузки промежутка : 500 мс.



Скачать Бег.зайца.через.поля.La.Course.du.lièvre.à.travers.les.champs.(Рене.Клеман).[1972.триллер.драма.криминал.DVDRip].[AVO].(Гаврилов).+.[MVO].torrent без регистрации
Золото ЗОЛОТАЯ РАЗДАЧА! СКАЧАННОЕ НЕ ЗАСЧИТЫВАЕТСЯ! Золото
Дата: Зарегистрирован   [ Тип: внутренний ] Как тут cкачать?
MAGNET ссылка
MAGNET ссылка


Скачать .torrent

19 KB

Статус: проверено DHT
Скачан: торрент - 121 раз, раздача полностью - 38 раз
Размер: 1,78 GB
Оценка:  - (Голосов: 0)
Поблагодарили: 2
Поделиться ссылкой на эту раздачу с друзьями:
В контактеFacebookОдноклассникиTwitterLivejournalМой МирLiveinternet
 

 
Показать сообщения:    


Вы не можете начинать темы
Вы не можете отвечать на сообщения
Вы не можете редактировать свои сообщения
Вы не можете удалять свои сообщения
Вы не можете голосовать в опросах
Вы не можете прикреплять файлы к сообщениям
Вы можете скачивать файлы