Loading...
Error

Скачать Бездна / The Deep (Питер Йетс) [1977, ужасы, триллер, детектив, приключения, DVDRip] [MVO] торрент без регистрации

 
Статистика раздачи
Размер:  1,46 GB   |    Скачан:  160 раз
Сидов:  1  [  0 KB/s  ]  
 
Автор Сообщение

leon030982

[] 

Бездна / The Deep
Страна: США
Жанр: ужасы, триллер, детектив, приключения
Год выпуска: 1977
Продолжительность: 01:59:28
Перевод: Профессиональный (многоголосый закадровый) Первый Канал
Cубтитры: нет
Режиссер: Питер Йетс
В ролях: Роберт Шоу, Жаклин Биссет,Ник Нолте, Луис Госсетт мл., Эли Уоллах, Дик Энтони Уильямс, Эрл Мэйнард, Боб Майнор, Тедди Таккер
Описание: Супруги Гейл и Дэвид проводят отпуск на экзотическом бермудском острове. Во время подводной охоты им достается роскошная и опасная добыча: они находят затонувший
испанский корабль, который набит несметными сокровищами.Искатели приключений и не подозревают, с чем им предстоит столкнуться в погоне за кладом.
В конце концов, они оказываются на краю бездны, где любое неверное движение может стоить жизни.


Качество видео: DVDRip
Формат видео: AVI
Видео: XviD, 720x304, 2,35:1, 25,000 fps, 1545 kbps, 0.282 bit/pixel
Аудио: AC3 Dolby Digital, 48 kHz, 192 kbps, 2/0 (L,R) ch
Общее
Полное имя : D:\Downloads\The.Deep.1977.DVDRip.XviD.avi
Формат : AVI
Формат/Информация : Audio Video Interleave
Размер файла : 1,46 Гбайт
Продолжительность : 1 ч. 59 м.
Общий поток : 1745 Кбит/сек
Программа кодирования : VirtualDubMod 1.5.10.2 (build 2540/release)
Библиотека кодирования : VirtualDubMod build 2540/release
Видео
Идентификатор : 0
Формат : MPEG-4 Visual
Профиль формата : Advanced Simple@L5
Параметр BVOP формата : 2
Параметр QPel формата : Нет
Параметр GMC формата : Без точки перехода
Параметр матрицы формата : Выборочная
Идентификатор кодека : XVID
Идентификатор кодека/Подсказка : XviD
Продолжительность : 1 ч. 59 м.
Битрейт : 1545 Кбит/сек
Ширина : 720 пикселей
Высота : 304 пикселя
Соотношение сторон : 2,35:1
Частота кадров : 25,000 кадров/сек
Цветовое пространство : YUV
Субдискретизация насыщенности : 4:2:0
Битовая глубина : 8 бит
Тип развёртки : Прогрессивная
Метод сжатия : С потерями
Бит/(Пиксели*Кадры) : 0.282
Размер потока : 1,29 Гбайт (89%)
Библиотека кодирования : XviD 1.2.1 (UTC 2008-12-04)
Аудио
Идентификатор : 1
Формат : AC-3
Формат/Информация : Audio Coding 3
Расширение режима : CM (complete main)
Идентификатор кодека : 2000
Продолжительность : 1 ч. 58 м.
Вид битрейта : Постоянный
Битрейт : 192 Кбит/сек
Каналы : 2 канала
Расположение каналов : Front: L R
Частота : 48,0 КГц
Битовая глубина : 16 бит
Метод сжатия : С потерями
Размер потока : 163 Мбайт (11%)
Выравнивание : Разделение по промежуткам
Продолжительность промежутка : 40 мс. (1,01 видеокадр)
Время предзагрузки промежутка : 500 мс.



Скачать Бездна.The.Deep.(Питер.Йетс).[1977.ужасы.триллер.детектив.приключения.DVDRip].[MVO].torrent без регистрации
Золото ЗОЛОТАЯ РАЗДАЧА! СКАЧАННОЕ НЕ ЗАСЧИТЫВАЕТСЯ! Золото
Дата: Зарегистрирован   [ Тип: внутренний ] Как тут cкачать?
MAGNET ссылка
MAGNET ссылка


Скачать .torrent

15 KB

Статус: проверено DHT
Скачан: торрент - 160 раз, раздача полностью - 20 раз
Размер: 1,46 GB
Оценка:  - (Голосов: 0)
Поблагодарили: 5
Поделиться ссылкой на эту раздачу с друзьями:
В контактеFacebookОдноклассникиTwitterLivejournalМой МирLiveinternet
 

 
Показать сообщения:    


Вы не можете начинать темы
Вы не можете отвечать на сообщения
Вы не можете редактировать свои сообщения
Вы не можете удалять свои сообщения
Вы не можете голосовать в опросах
Вы не можете прикреплять файлы к сообщениям
Вы можете скачивать файлы