Loading...
Error

Скачать Птичка на проводе / Bird on a Wire (Джон Бэдэм) [1990, Приключения, комедия, HDTVRip] 2x[MVO] + 2x[AVO] торрент без регистрации

 
Статистика раздачи
Размер:  1,89 GB   |    Скачан:  5343 раза
Сидов:  1  [  0 KB/s  ]  
 
Автор Сообщение

leon030982

[] 

Птичка на проводе / Bird on a Wire
Страна: США
Жанр: Приключения, комедия
Год выпуска: 1990
Продолжительность: 01:45:46
Перевод 1: Профессиональный (многоголосый закадровый)
Перевод 2: Профессиональный (многоголосый закадровый) Премьер видео (отдельным файлом)
Перевод 3: Авторский (одноголосый закадровый) Гаврилов (отдельным файлом)
Перевод 4: Авторский (одноголосый закадровый) Иванов (отдельным файлом)
Cубтитры: нет
Режиссер: Джон Бэдэм / John Badham
В ролях: Мел Гибсон, Голди Хоун, Дэвид Кэррэдин, Билл Дьюк, Стивен Тоболовски, Джоэн Северэнс
Описание: Дела Рика Джармина, живущего тайной жизнью по специально разработанной ФБР программе защиты свидетелей, складывается не лучшим образом. Дело в том, что пятнадцать лет назад он дал показания против полицейского, промышляющего торговлей наркотиками, что позволило усадить негодяя за решетку. Преступник, отсидевший свой срок, решает отомстить «стукачу» и начинает охоту на Джармина. Случайно Рик сталкивается с Мэриэнн Грэйвз, своей бывшей невестой. Мэриэнн, естественно, узнает его, что облегчает задачу убийцам, следующим за Джармином по пятам. Теперь бывшим возлюбленным вместе предстоит спасаться от злодеев, но именно это помогает им вернуть утраченную любовь.

Сэмпл: http://multi-up.com/638517
Качество видео: HDTVRip
Формат видео: AVI
Видео: 704x304 (2.32:1), 25 fps, XviD build 50, 1779 kbps avg, 0.33 bit/pixel
Аудио 1: Russian: 48 kHz, AC3 Dolby Digital, 2/0 (L,R) ch, 192.00 kbps avg (MVO)
Аудио 2: Russian: 48 kHz, AC3 Dolby Digital, 2/0 (L,R) ch, 192.00 kbps avg (MVO Премьер)
Аудио 3: Russian: 48 kHz, AC3 Dolby Digital, 2/0 (L,R) ch, 192.00 kbps avg (AVO Гаврилов)
Аудио 4: Russian: 48 kHz, AC3 Dolby Digital, 2/0 (L,R) ch, 192.00 kbps avg (AVO Иванов)[align=center][color=darkblue][u]
General
Complete name : E:\Мои раздачи\Bird on a Wire_RG_All_Films\Bird On A Wire.avi
Format : AVI
Format/Info : Audio Video Interleave
File size : 1.46 GiB
Duration : 1h 45mn
Overall bit rate : 1 982 Kbps
Writing application : VirtualDubMod 1.5.10.3 | www.virtualdub-fr.org || (build 2550/release)
Writing library : VirtualDubMod build 2550/release
Video
ID : 0
Format : MPEG-4 Visual
Format profile : Advanced Simple@L5
Format settings, BVOP : Yes
Format settings, QPel : No
Format settings, GMC : No warppoints
Format settings, Matrix : Custom
Codec ID : XVID
Codec ID/Hint : XviD
Duration : 1h 45mn
Bit rate : 1 780 Kbps
Width : 704 pixels
Height : 304 pixels
Display aspect ratio : 2.35:1
Frame rate : 25.000 fps
Color space : YUV
Chroma subsampling : 4:2:0
Bit depth : 8 bits
Scan type : Progressive
Compression mode : Lossy
Bits/(Pixel*Frame) : 0.333
Stream size : 1.32 GiB (90%)
Writing library : XviD 1.2.1 (UTC 2008-12-04)
Audio
ID : 1
Format : AC-3
Format/Info : Audio Coding 3
Mode extension : CM (complete main)
Codec ID : 2000
Duration : 1h 45mn
Bit rate mode : Constant
Bit rate : 192 Kbps
Channel(s) : 2 channels
Channel positions : Front: L R
Sampling rate : 48.0 KHz
Bit depth : 16 bits
Compression mode : Lossy
Stream size : 145 MiB (10%)
Alignment : Split accross interleaves
Interleave, duration : 40 ms (1.00 video frame)
Interleave, preload duration : 500 ms



Скачать Птичка.на.проводе.Bird.on.a.Wire.(Джон.Бэдэм).[1990.Приключения.комедия.HDTVRip].2x[MVO].+.2x[AVO].torrent без регистрации
Золото ЗОЛОТАЯ РАЗДАЧА! СКАЧАННОЕ НЕ ЗАСЧИТЫВАЕТСЯ! Золото
Дата: Зарегистрирован   [ Тип: внутренний ] Как тут cкачать?
MAGNET ссылка
MAGNET ссылка


Скачать .torrent

20 KB

Статус: проверено DHT
Скачан: торрент - 5343 раз, раздача полностью - 8 раз
Размер: 1,89 GB
Оценка:  - (Голосов: 0)
Поблагодарили: 1
Поделиться ссылкой на эту раздачу с друзьями:
В контактеFacebookОдноклассникиTwitterLivejournalМой МирLiveinternet
 

 
Показать сообщения:    


Вы не можете начинать темы
Вы не можете отвечать на сообщения
Вы не можете редактировать свои сообщения
Вы не можете удалять свои сообщения
Вы не можете голосовать в опросах
Вы не можете прикреплять файлы к сообщениям
Вы можете скачивать файлы