Loading...
Error

Скачать Суд присяжных / Trial by Jury (Хейвуд Гулд) [1994, триллер, драма, криминал, DVDRip] [AVO] (Пронин) торрент без регистрации

 
Статистика раздачи
Размер:  800 MB   |    Скачан:  154 раза

Полного источника не было: 9 месяцев

 
Автор Сообщение

leon030982

[] 

Суд присяжных / Trial by Jury
Страна: США
Жанр: триллер, драма, криминал
Год выпуска: 1994
Продолжительность: 01:46:03
Перевод: Авторский (одноголосый закадровый) (Антон Пронин)
Cубтитры: нет
Оригинальная аудиодорожка: английский
Режиссер: Хейвуд Гулд / Heywood Gould
В ролях: Джоэнн Уэлли / Joanne Whalley, Арманд Ассанте / Armand Assante, / Gabriel Byrne, Уильям Хёрт / William Hurt, Кэтлин Куинлен / Kathleen Quinlan, Маргарет Уиттон / Margaret Whitton, Эд Лотер / Ed Lauter, Ричард Портноу / Richard Portnow, Лиза Арринделл Андерсон / Lisa Arrindell Anderson, Джек Гуолтни / Jack Gwaltney, Грэм Джарвис / Graham Jarvis, Уильям Р. Моусес / William R. Moses, Джо Сантос / Joe Santos, Бо Старр / Beau Starr
Описание: Мафиозный босс Пироне обвиняется в убийстве 11 человек. Но хотя улик против него более чем достаточно, он уверен в себе. Накануне процесса его люди убивают главного свидетеля обвинения, и прокурор Грэм должен вести дело на основании косвенных улик. Однако все присяжные и так убеждены в виновности босса мафии. И тогда в дело вступает бывший полицейский Визи, работающий на Пироне. Используя свой богатый профессиональный опыт, Визи запугивает одну из присяжных, Валери Олстон. Ее единственный шанс остаться в живых - научиться играть по смертельно опасным правилам.. и победить.
5.2/10 (1,098 votes)
Качество видео: DVDRip
Формат видео: AVI
Видео: 544x304 (1.79), 23.976 fps, XviD ~784 Kbps, 0.198 bit/pixel
Аудио: русский, 48 kHz, MPEG Layer 3, 2 ch, 128 Kbps
Аудио 2: английский, 48 kHz, MPEG Layer 3, 2 ch, 128 Kbps
Раздача от группы All Films
General
Format : AVI
Format/Info : Audio Video Interleave
File size : 800 MiB
Duration : 1h 46mn
Overall bit rate : 1 054 Kbps
Writing application : VirtualDubMod 1.5.10.2 (build 2540/release)
Writing library : VirtualDubMod build 2540/release
Video
ID : 0
Format : MPEG-4 Visual
Format profile : Advanced Simple@L5
Format settings, BVOP : 1
Format settings, QPel : No
Format settings, GMC : No warppoints
Format settings, Matrix : Default (H.263)
Muxing mode : Packed bitstream
Codec ID : XVID
Codec ID/Hint : XviD
Duration : 1h 46mn
Bit rate : 784 Kbps
Width : 544 pixels
Height : 304 pixels
Display aspect ratio : 16:9
Frame rate : 23.976 fps
Color space : YUV
Chroma subsampling : 4:2:0
Bit depth : 8 bits
Scan type : Progressive
Compression mode : Lossy
Bits/(Pixel*Frame) : 0.198
Stream size : 595 MiB (74%)
Writing library : XviD 1.1.0 (UTC 2005-11-22)
Audio #1
ID : 1
Format : MPEG Audio
Format version : Version 1
Format profile : Layer 3
Mode : Joint stereo
Mode extension : MS Stereo
Codec ID : 55
Codec ID/Hint : MP3
Duration : 1h 46mn
Bit rate mode : Constant
Bit rate : 128 Kbps
Channel(s) : 2 channels
Sampling rate : 48.0 KHz
Compression mode : Lossy
Stream size : 97.1 MiB (12%)
Alignment : Aligned on interleaves
Interleave, duration : 42 ms (1.00 video frame)
Interleave, preload duration : 504 ms
Audio #2
ID : 2
Format : MPEG Audio
Format version : Version 1
Format profile : Layer 3
Mode : Joint stereo
Codec ID : 55
Codec ID/Hint : MP3
Duration : 1h 46mn
Bit rate mode : Constant
Bit rate : 128 Kbps
Channel(s) : 2 channels
Sampling rate : 48.0 KHz
Compression mode : Lossy
Stream size : 97.1 MiB (12%)
Alignment : Aligned on interleaves
Interleave, duration : 42 ms (1.00 video frame)
Interleave, preload duration : 504 ms
Writing library : LAME3.97b
Encoding settings : -m j -V 4 -q 2 -lowpass 17 -b 128



Скачать Суд.присяжных.Trial.by.Jury.(Хейвуд.Гулд).[1994.триллер.драма.криминал.DVDRip].[AVO].(Пронин).torrent без регистрации
Золото ЗОЛОТАЯ РАЗДАЧА! СКАЧАННОЕ НЕ ЗАСЧИТЫВАЕТСЯ! Золото
Дата: Зарегистрирован   [ Тип: внутренний ] Как тут cкачать?
MAGNET ссылка
MAGNET ссылка


Скачать .torrent

16 KB

Статус: проверено
Скачан: торрент - 154 раз, раздача полностью - 201 раз
Размер: 800 MB
Оценка:  - (Голосов: 0)
Поблагодарили: 2
Поделиться ссылкой на эту раздачу с друзьями:
В контактеFacebookОдноклассникиTwitterLivejournalМой МирLiveinternet
 

 
Показать сообщения:    


Вы не можете начинать темы
Вы не можете отвечать на сообщения
Вы не можете редактировать свои сообщения
Вы не можете удалять свои сообщения
Вы не можете голосовать в опросах
Вы не можете прикреплять файлы к сообщениям
Вы можете скачивать файлы