Loading...
Error

Скачать Пограничный городок / Город на границе / Bordertown (Грегори Нава) [2006, триллер, драма, криминал, HDRip] [Лицензия] торрент без регистрации

 
Статистика раздачи
Размер:  746 MB   |    Скачан:  837 раз
Сидов:  1  [  0 KB/s  ]  
 
Автор Сообщение

leon030982

[] 

Пограничный городок / Город на границе / Bordertown



Страна: США, Великобритания
Жанр: триллер, драма, криминал
Год выпуска: 2006
Продолжительность: 01:52:02

Озвучивание: Профессиональный, многоголосый [лицензия]
Cубтитры: нет

Режиссер: Грегори Нава / Gregory Nava
В ролях: Дженнифер Лопез, Антонио Бандерас, Кейт Дел Кастилло, Джон Норман, Иринео Альварез, Ричард Барела, Рэндолл Батинкофф, Хуан Диего Ботто, Соня Брэга, Хулио Седилльо

Описание: История репортерши американской газеты Чикаго Сентинел по имени Лорен, чьим очередным редакционным заданием становится коммандировка в мексиканский приграничный городок Хуарез, где она должна будет провести собственное расследование серии нераскрытых убийств женщин — работниц фабрик, произошедших по всей стране. В ходе расследования Лорен узнает, что счет жертв идет уже на сотни. Чтобы узнать об этой ситуации побольше, она решает войти в доверие в работницам местной фабрики, что в последствии подвергает ее собственную жизнь опасности.



Качество видео: HDRip [Bordertown.2006.BluRay.1080p.DTS.x264-CHD]
Формат видео: AVI
Видео: 640x352 (1.82:1), 23.976 fps, XviD build 50 ~809 kbps avg, 0.15 bit/pixel
Аудио: 44.100 kHz, MPEG Layer 3, 2 ch, ~112.00 kbps avg
General
Complete name : Bordertown.2006.P.HDRip.746.avi
Format : AVI
Format/Info : Audio Video Interleave
File size : 746 MiB
Duration : 1h 52mn
Overall bit rate : 931 Kbps
Writing application : VirtualDubModRus 1.5.10.2 (build 2542/release)
Writing library : VirtualDubMod build 2542/release
Video
ID : 0
Format : MPEG-4 Visual
Format profile : Advanced Simple@L5
Format settings, BVOP : 2
Format settings, QPel : No
Format settings, GMC : No warppoints
Format settings, Matrix : Custom
Codec ID : XVID
Codec ID/Hint : XviD
Duration : 1h 52mn
Bit rate : 810 Kbps
Width : 640 pixels
Height : 352 pixels
Display aspect ratio : 16:9
Frame rate : 23.976 fps
Color space : YUV
Chroma subsampling : 4:2:0
Bit depth : 8 bits
Scan type : Progressive
Compression mode : Lossy
Bits/(Pixel*Frame) : 0.150
Stream size : 649 MiB (87%)
Writing library : XviD 1.2.1 (UTC 2008-12-04)
Audio
ID : 1
Format : MPEG Audio
Format version : Version 1
Format profile : Layer 3
Mode : Joint stereo
Mode extension : MS Stereo
Codec ID : 55
Codec ID/Hint : MP3
Duration : 1h 52mn
Bit rate mode : Constant
Bit rate : 112 Kbps
Channel(s) : 2 channels
Sampling rate : 44.1 KHz
Compression mode : Lossy
Delay relative to video : 5ms
Stream size : 89.8 MiB (12%)
Alignment : Split accross interleaves
Interleave, duration : 42 ms (1.00 video frame)
Interleave, preload duration : 500 ms



Скачать Пограничный.городок.Город.на.границе.Bordertown.(Грегори.Нава).[2006.триллер.драма.криминал.HDRip].[Лицензия].torrent без регистрации
Золото ЗОЛОТАЯ РАЗДАЧА! СКАЧАННОЕ НЕ ЗАСЧИТЫВАЕТСЯ! Золото
Дата: Зарегистрирован   [ Тип: внутренний ] Как тут cкачать?
MAGNET ссылка
MAGNET ссылка


Скачать .torrent

15 KB

Статус: проверено DHT
Скачан: торрент - 837 раз, раздача полностью - 9 раз
Размер: 746 MB
Оценка:  - (Голосов: 0)
Поблагодарили: 2
Поделиться ссылкой на эту раздачу с друзьями:
В контактеFacebookОдноклассникиTwitterLivejournalМой МирLiveinternet
 

 
Показать сообщения:    


Вы не можете начинать темы
Вы не можете отвечать на сообщения
Вы не можете редактировать свои сообщения
Вы не можете удалять свои сообщения
Вы не можете голосовать в опросах
Вы не можете прикреплять файлы к сообщениям
Вы можете скачивать файлы