Loading...
Error

Скачать Крик в глуши / A Cry in the Wild (Марк Гриффитс) [1990, приключения, триллер, DVDRip] [SUB] торрент без регистрации

 
Статистика раздачи
Размер:  700 MB   |    Скачан:  161 раз
Сидов:  1  [  0 KB/s  ]  
 
Автор Сообщение

leon030982

[] 

Крик в глуши / A Cry in the Wild
Страна: США
Жанр: Приключения, триллер
Год выпуска: 1990
Продолжительность: 01:21:52
Перевод: Субтитры (adamovna)
Cубтитры: русские
Оригинальная аудиодорожка: английский
Режиссер: Марк Гриффитс / Mark Griffiths
В ролях: Джэред Раштон / Jared Rushton, Нед Битти / Ned Beatty, Памела Сью Мартин / Pamela Sue Martin, Стефен Мидоуз / Stephen Meadows, Теренс Х. Уинклесс / Terence H. Winkless
Описание: 13- летнего мальчика, Брайана, его мать провожает в поездку на летние каникулы к отцу, который работает на нефтяном месторождении на Юконе, северо-западе Канады. Родители Брайана в разводе, в котором мальчик винит мать, и поэтому он на нее в большой обиде. Мама дарит мальчику топорик, который Брайан принимает нехотя... Во время полета на маленьком самолете от сердечного приступа умирает пилот, и Брайан оказывается один за штурвалом. Самолет терпит крушение, падая в озеро, окруженное канадской тайгой. И у Брайана, сумевшего выбраться из кабины и выплыть, из всех благ цивилизации, способных ему помочь выжить в таежных дебрях Юкона - только топор, подаренный матерью...
Доп. информация: Фильм снят по книге "Топор" Гэри Полсена, - американского автора более чем двух сотен детских и юношеских приключенческих книг о животных, о дикой природе и выживании в ней, но неизвестного в России.
Фильм на IMDb
Фильм на Кинопоиске

Качество видео: DVDRip
Формат видео: AVI
Видео: XVID, 4:3, 512 х 384, 23.976 fps, 1 038 Kbps
Аудио: MPEG Audio Layer 3, 48.0 KHz, 160 Kbps, 2 channels, original
Формат субтитров: softsub (SRT)
Complete name : E:\A Cry in the Wild .avi
Format : AVI
Format/Info : Audio Video Interleave
File size : 700 MiB
Duration : 1h 21mn
Overall bit rate : 1 195 Kbps
Writing application : VirtualDubMod 1.5.4.1 (build 2178/release)
Writing library : VirtualDubMod build 2178/release
Video
ID : 0
Format : MPEG-4 Visual
Format profile : Advanced Simple@L5
Format settings, BVOP : Yes
Format settings, QPel : No
Format settings, GMC : No warppoints
Format settings, Matrix : Custom
Codec ID : XVID
Codec ID/Hint : XviD
Duration : 1h 21mn
Bit rate : 1 038 Kbps
Width : 512 pixels
Height : 384 pixels
Display aspect ratio : 4:3
Frame rate : 23.976 fps
Color space : YUV
Chroma subsampling : 4:2:0
Bit depth : 8 bits
Scan type : Progressive
Bits/(Pixel*Frame) : 0.220
Stream size : 608 MiB (87%)
Writing library : XviD 1.1.2 (UTC 2006-11-01)
Audio
ID : 1
Format : MPEG Audio
Format version : Version 1
Format profile : Layer 3
Mode : Joint stereo
Mode extension : MS Stereo
Codec ID : 55
Codec ID/Hint : MP3
Duration : 1h 21mn
Bit rate mode : Variable
Bit rate : 145 Kbps
Nominal bit rate : 160 Kbps
Channel(s) : 2 channels
Sampling rate : 48.0 KHz
Stream size : 85.0 MiB (12%)
Alignment : Aligned on interleaves
Interleave, duration : 24 ms (0.58 video frame)
Interleave, preload duration : 534 ms
Writing library : LAME3.97
Encoding settings : -m j -V 4 -q 2 -lowpass 17.5 --abr 160
Language : English
4
00:01:56,114 --> 00:01:59,407
- Брайан, примерь-ка вот это.
5
00:02:00,826 --> 00:02:03,121
В Канаде тебе это пригодится.
6
00:02:08,629 --> 00:02:12,389
Спасиба за помощь. Особенно за это...
- Обращайтесь в любое время.
Надеюсь, увижу вас снова.
7
00:02:16,821 --> 00:02:18,821
- Глупый пес, мы же сказали, что вернемся.
8
00:02:18,953 --> 00:02:22,150
- Мам, кто этот парень, который нам помог?
9
00:02:22,803 --> 00:02:25,627
- У меня есть для тебя небольшой сюрприз,
Ладно, все. Пойдем.
10
00:02:30,167 --> 00:02:32,708
Давай, вперед. Хорошо...
11
00:02:33,841 --> 00:02:35,455
Здесь.
12
00:02:47,744 --> 00:02:51,020
Это топор. Пригодится тебе в канадских дебрях.
13
00:02:51,440 --> 00:02:54,612
Возьми его.
- Мам, у меня есть гордость.
14
00:02:54,666 --> 00:02:57,353
-Ну ладно тебе... Пристегни его к ремню.
15
00:03:03,999 --> 00:03:08,391
Как здорово! Я сфотографирую.
- Мам, это уже слишком!
16
00:03:18,589 --> 00:03:21,147
- Брайан, я хочу поговорить
с тобой перед поездкой.
17
00:03:22,560 --> 00:03:26,348
- Конечно, мама.
О! Послушай вот здесь соло гитары!
18
00:03:43,944 --> 00:03:47,391
- Здравствуйте! Вы - Джейк Холкомб?
19
00:03:49,938 --> 00:03:50,938
- Да, это я.
20
00:03:51,017 --> 00:03:53,917
- Я - Джин Робинсон,
а это - мой сын Брайан.
21
00:03:53,996 --> 00:03:56,680
Он полетит с вами до Клейтона,
на нефтяное месторождение.
22
00:03:56,681 --> 00:03:59,864
- Да, знаю,я получил письмо
Брэда Робинсона из лагеря.
23
00:03:59,923 --> 00:04:02,802
- Это его отец. Мальчик проведет лето с ним.
24
00:04:03,895 --> 00:04:06,689
- У тебя есть багаж или ты будешь
ходить так все лето?



Скачать Крик.в.глуши.A.Cry.in.the.Wild.(Марк.Гриффитс).[1990.приключения.триллер.DVDRip].[SUB].torrent без регистрации
Золото ЗОЛОТАЯ РАЗДАЧА! СКАЧАННОЕ НЕ ЗАСЧИТЫВАЕТСЯ! Золото
Дата: Зарегистрирован   [ Тип: внутренний ] Как тут cкачать?
MAGNET ссылка
MAGNET ссылка


Скачать .torrent

14 KB

Статус: проверено DHT
Скачан: торрент - 161 раз, раздача полностью - 32 раз
Размер: 700 MB
Оценка:  - (Голосов: 0)
Поблагодарили: 1
Поделиться ссылкой на эту раздачу с друзьями:
В контактеFacebookОдноклассникиTwitterLivejournalМой МирLiveinternet
 

 
Показать сообщения:    


Вы не можете начинать темы
Вы не можете отвечать на сообщения
Вы не можете редактировать свои сообщения
Вы не можете удалять свои сообщения
Вы не можете голосовать в опросах
Вы не можете прикреплять файлы к сообщениям
Вы можете скачивать файлы