Loading...
Error

Скачать Зорро, голубой клинок / Братья Зорро / Zorro, the Gay Blade (Питер Медак) [1981, комедия, приключения, HDTVRip] [DVO] + [MVO] торрент без регистрации

 
Статистика раздачи
Размер:  1,59 GB   |    Скачан:  140 раз

Полного источника не было: 8 месяцев

 
Автор Сообщение

leon030982

[] 

Зорро, голубой клинок / Братья Зорро / Zorro, the Gay Blade
Страна: США
Жанр: Комедия, приключения
Год выпуска: 1981
Продолжительность: 01:33:26
Перевод 1: Профессиональный (двухголосый закадровый) REN-TV
Перевод 2: Профессиональный (многоголосый закадровый) ОРТ
Cубтитры: нет
Режиссер: Питер Медак / Peter Medak
В ролях: Джордж Гамильтон, Лорен Хаттон, Бренда Ваккаро, Рон Лейбман, Донован Скотт, Джеймс Бут, Хелен Бернс, Клайв Ривилл, Кэролайн Сеймур
Описание: Отважный дон Диего Вега защищал слабых и бедных от богатых и коварных злодеев, но сам стал жертвой несправедливости. И тогда, чтобы помочь Диего, на тропу борьбы с тиранами-толстосумами вышел его брат-близнец Банни Уигглсворт. В маске, плаще и со шпагой в руке Банни стал таким же Зорро... Почти таким же... Потому что дон Диего, когда подворачивался случай, заглядывался на слабый пол, а его брат был явно неравнодушен к представителям пола сильного...

Сэмпл: http://multi-up.com/640229
Качество видео: HDTVRip
Формат видео: AVI
Видео: 720x400 (1.80:1), 23.976 fps, XviD build 50, 2039 kbps avg, 0.29 bit/pixel
Аудио 1: Russian: 48 kHz, AC3 Dolby Digital, 2/0 (L,R) ch, ~192.00 kbps avg (REN-TV)
Аудио 2: Russian: 48 kHz, AC3 Dolby Digital, 2/0 (L,R) ch, ~192.00 kbps avg
General
Complete name : E:\Мои раздачи\Zorro the Gay Blade_RG_All_Films.avi
Format : AVI
Format/Info : Audio Video Interleave
File size : 1.59 GiB
Duration : 1h 33mn
Overall bit rate : 2 438 Kbps
Writing application : VirtualDubMod 1.6.0.0 SURROUND (build 2560/release)
Writing library : VirtualDubMod build 2560/release
Video
ID : 0
Format : MPEG-4 Visual
Format profile : Advanced Simple@L5
Format settings, BVOP : Yes
Format settings, QPel : No
Format settings, GMC : No warppoints
Format settings, Matrix : Custom
Codec ID : XVID
Codec ID/Hint : XviD
Duration : 1h 33mn
Bit rate : 2 040 Kbps
Width : 720 pixels
Height : 400 pixels
Display aspect ratio : 16:9
Frame rate : 23.976 fps
Color space : YUV
Chroma subsampling : 4:2:0
Bit depth : 8 bits
Scan type : Progressive
Compression mode : Lossy
Bits/(Pixel*Frame) : 0.295
Stream size : 1.33 GiB (84%)
Writing library : XviD 1.2.1 (UTC 2008-12-04)
Audio #1
ID : 1
Format : AC-3
Format/Info : Audio Coding 3
Mode extension : CM (complete main)
Codec ID : 2000
Duration : 1h 33mn
Bit rate mode : Constant
Bit rate : 192 Kbps
Channel(s) : 2 channels
Channel positions : Front: L R
Sampling rate : 48.0 KHz
Bit depth : 16 bits
Compression mode : Lossy
Stream size : 128 MiB (8%)
Alignment : Split accross interleaves
Interleave, duration : 42 ms (1.00 video frame)
Interleave, preload duration : 500 ms
Audio #2
ID : 2
Format : AC-3
Format/Info : Audio Coding 3
Mode extension : CM (complete main)
Codec ID : 2000
Duration : 1h 33mn
Bit rate mode : Constant
Bit rate : 192 Kbps
Channel(s) : 2 channels
Channel positions : Front: L R
Sampling rate : 48.0 KHz
Bit depth : 16 bits
Compression mode : Lossy
Stream size : 128 MiB (8%)
Alignment : Split accross interleaves
Interleave, duration : 42 ms (1.00 video frame)
Interleave, preload duration : 500 ms



Скачать Зорро.голубой.клинок.Братья.Зорро.Zorro.the.Gay.Blade.(Питер.Медак).[1981.комедия.приключения.HDTVRip].[DVO].+.[MVO].torrent без регистрации
Золото ЗОЛОТАЯ РАЗДАЧА! СКАЧАННОЕ НЕ ЗАСЧИТЫВАЕТСЯ! Золото
Дата: Зарегистрирован   [ Тип: внутренний ] Как тут cкачать?
MAGNET ссылка
MAGNET ссылка


Скачать .torrent

16 KB

Статус: проверено
Скачан: торрент - 140 раз, раздача полностью - 8 раз
Размер: 1,59 GB
Оценка:  5 (Голосов: 1)
Поблагодарили: 4
Поделиться ссылкой на эту раздачу с друзьями:
В контактеFacebookОдноклассникиTwitterLivejournalМой МирLiveinternet
 

 
Показать сообщения:    


Вы не можете начинать темы
Вы не можете отвечать на сообщения
Вы не можете редактировать свои сообщения
Вы не можете удалять свои сообщения
Вы не можете голосовать в опросах
Вы не можете прикреплять файлы к сообщениям
Вы можете скачивать файлы