Loading...
Error

Скачать Самоа, королева из джунглей / Samoa, queen of the jungle (Гуидо Малатеста) [1968, Италия, Приключения, DVDRip] [VO] торрент без регистрации

 
Статистика раздачи
Размер:  1,37 GB   |    Скачан:  186 раз

Полного источника не было: 30 минут

 
Автор Сообщение

leon030982

[] 

Самоа, королева из джунглей / Samoa, queen of the jungle
Страна: Италия
Жанр: Приключения
Год выпуска: 1968
Продолжительность: 01:24:12
Перевод: Одноголосый закадровый
Cубтитры: нет
Режиссер: Гуидо Малатеста / Guido Malatesta
В ролях: Роджер Браун, Эдвидж Фенек, Айви Хольцер, Андреа Аурели
Описание: Экспедиция отправляется в непроходимые джунгли на поиски первобытного племени, хранящего бесценные сокровища. Там они встречают девушку-полукровку по имени Самоа, в которую влюбляется их предводитель Клинт , а ещё один молодой человек по имени Ален — в местную девушку Жасмин. Им предлагают остаться в племени, некоторых это привлекает, их очаровывают красота тропиков и душевная чистота местных жителей. Но после того, как гости увидели бочку с алмазами в храме аборигенов, жажда наживы берет свое, она разрушает светлые мечты и несет гибель тому, кто не может остановиться.

Семпл
Качество видео: DVDRip
Формат видео: AVI

Видео: XviD build 50, 672x288 , 25 fps, 2189 kbps avg, 0.45 bit/pixel
Аудио: MPEG Layer 3, 48 kHz, 2 ch, 128 kbps avg
General
Complete name : C:\Documents and Settings\Алекс\Мои документы\Мои раздачи\Самоа королева\Samoa.avi
Format : AVI
Format/Info : Audio Video Interleave
File size : 1.37 GiB
Duration : 1h 24mn
Overall bit rate : 2 324 Kbps
Writing application : VirtualDubMod 1.5.4.1 (build 2178/release)
Writing library : VirtualDubMod build 2178/release
Video
ID : 0
Format : MPEG-4 Visual
Format profile : Advanced Simple@L5
Format settings, BVOP : Yes
Format settings, QPel : No
Format settings, GMC : No warppoints
Format settings, Matrix : Custom
Codec ID : XVID
Codec ID/Hint : XviD
Duration : 1h 24mn
Bit rate : 2 189 Kbps
Width : 672 pixels
Height : 288 pixels
Display aspect ratio : 2.35:1
Frame rate : 25.000 fps
Resolution : 8 bits
Colorimetry : 4:2:0
Scan type : Progressive
Bits/(Pixel*Frame) : 0.452
Stream size : 1.29 GiB (94%)
Writing library : XviD 1.2.1 (UTC 2008-12-04)
Audio
ID : 1
Format : MPEG Audio
Format version : Version 1
Format profile : Layer 3
Mode : Joint stereo
Codec ID : 55
Codec ID/Hint : MP3
Duration : 1h 24mn
Bit rate mode : Constant
Bit rate : 128 Kbps
Channel(s) : 2 channels
Sampling rate : 48.0 KHz
Stream size : 77.1 MiB (6%)
Alignment : Aligned on interleaves
Interleave, duration : 80 ms (2.00 video frames)
Interleave, preload duration : 504 ms



Скачать Самоа.королева.из.джунглей.Samoa.queen.of.the.jungle.(Гуидо.Малатеста).[1968.Италия.Приключения.DVDRip].[VO].torrent без регистрации
Золото ЗОЛОТАЯ РАЗДАЧА! СКАЧАННОЕ НЕ ЗАСЧИТЫВАЕТСЯ! Золото
Дата: Зарегистрирован   [ Тип: внутренний ] Как тут cкачать?
MAGNET ссылка
MAGNET ссылка


Скачать .torrent

14 KB

Статус: проверено DHT
Скачан: торрент - 186 раз, раздача полностью - 61 раз
Размер: 1,37 GB
Оценка:  - (Голосов: 0)
Поблагодарили: 1
Поделиться ссылкой на эту раздачу с друзьями:
В контактеFacebookОдноклассникиTwitterLivejournalМой МирLiveinternet
 

 
Показать сообщения:    


Вы не можете начинать темы
Вы не можете отвечать на сообщения
Вы не можете редактировать свои сообщения
Вы не можете удалять свои сообщения
Вы не можете голосовать в опросах
Вы не можете прикреплять файлы к сообщениям
Вы можете скачивать файлы