Loading...
Error

Скачать Рим, открытый город / Roma citta aperta / Rome, Open City (Роберто Росселлини) [1945, драма, военный, BDRip] 2x[MVO] торрент без регистрации

 
Статистика раздачи
Размер:  1,59 GB   |    Скачан:  154 раза

Полного источника не было: 3 месяца 9 дней

 
Автор Сообщение

leon030982

[] 

Рим, открытый город

Roma citta aperta
Страна: Италия
Жанр: Драма, военный
Год выпуска: 1945
Продолжительность: 01:42:44
Перевод 1: Профессиональный (многоголосый закадровый) Кармен Видео
Перевод 2: Профессиональный (многоголосый закадровый) ВГТРК
Cубтитры: Русские
Оригинальная аудиодорожка: Итальянский
Режиссер: Роберто Росселлини
В ролях: Альдо Фабрици, Анна Маньяни, Марчелло Пальеро, Вито Анникьярико, Нандо Бруно, Харри Файст, Джованна Галлетти, Франческо Гранжаке, Эдуардо Пассарелли, Мария Мичи
Описание: Рим в последние месяцы оккупации. Умирающая немецкая армия отчаянно хранит последние свои оплоты и жестоко расправляется с мятежниками. Но в сердце города уже родился свой отряд Сопротивления. Близок конец войны...
Действие фильма происходит в 1944 году в Риме. Гестапо охотится за инженером Джорджио Манфреди. Он находит приют в квартире друга Франческо. Ему также помогает священник Дон Пьетро и невеста Франческо — вдова Пина.
На следующий день у Франческо и Пины назначена свадьба. Венчать их должен Дон Пьетро, хотя Пина и не очень религиозна, а также беременна ещё до свадьбы.
Дети взрывают ночью цистерну с бензином недалеко от дома.
Днём дом оцепляют немецкие войска и начинают обыск квартир. Франческо схвачен. Пина бежит за машиной с арестованными, и её расстреливают. Позже на автоколонну нападают участники Сопротивления и освобождают арестованных.
Джорджио и Франческо прячутся на квартире любовницы Джорджио, Марины. Та выдаёт их гестапо в обмен на наркотики.
На следующий день гестапо арестовывает Джорджио, Дона Пьетро и немецкого дезертира. Последний вешается в камере. Гестаповцы пытают Джорджио на глазах у Дона Пьетро. Священник молится за Джорджио, чтобы тот никого не выдал. От пыток Джорджио умирает.
Дона Пьетро расстреливают на глазах у детей из его дома.
Первоисточник: Blu-Ray Remux 1080p (HDClub)
Сэмпл: http://multi-up.com/639175
Качество видео: BDRip
Формат видео: AVI
Видео: MPEG-4 Visual, 1627 Кбит/сек, 704 x 512 (1.375), 23.976 fps, 0.19 bit/pixel
Аудио #1: AC-3, 192 Кбит/сек, 2 канала, 48,0 КГц (Кармен Видео)
Аудио #2: AC-3, 192 Кбит/сек, 2 канала, 48,0 КГц (ВГТРК)
Аудио #3: AC-3, 192 Кбит/сек, 2 канала, 48,0 КГц (Итальянский, отдельным файлом)
Формат субтитров: softsub (SRT)
Общее
Полное имя : Rim.otkritiy.gorod.1945.BDRip\Rim.otkritiy.gorod.1945.BDRip.avi
Формат : AVI
Формат/Информация : Audio Video Interleave
Размер файла : 1,45 Гбайт
Продолжительность : 1 ч. 42 м.
Общий поток : 2025 Кбит/сек
Программа кодирования : VirtualDubMod 1.5.4.1 (build 2066/release)
Видео
Идентификатор : 0
Формат : MPEG-4 Visual
Профиль формата : Advanced Simple@L5
Параметр BVOP формата : 2
Параметр QPel формата : Нет
Параметр GMC формата : Без точки перехода
Параметр матрицы формата : Default (MPEG)
Идентификатор кодека : XVID
Идентификатор кодека/Подсказка : XviD
Продолжительность : 1 ч. 42 м.
Битрейт : 1627 Кбит/сек
Ширина : 704 пикселя
Высота : 512 пикселей
Соотношение сторон : 1,375
Частота кадров : 23,976 кадра/сек
Цветовое пространство : YUV
Субдискретизация насыщенности : 4:2:0
Битовая глубина : 8 бит
Тип развёртки : Прогрессивная
Метод сжатия : С потерями
Бит/(Пиксели*Кадры) : 0.188
Размер потока : 1,17 Гбайт (80%)
Библиотека кодирования : XviD 64
Аудио #1
Идентификатор : 1
Формат : AC-3
Формат/Информация : Audio Coding 3
Расширение режима : CM (complete main)
Идентификатор кодека : 2000
Продолжительность : 1 ч. 42 м.
Вид битрейта : Постоянный
Битрейт : 192 Кбит/сек
Каналы : 2 канала
Расположение каналов : Front: L R
Частота : 48,0 КГц
Битовая глубина : 16 бит
Метод сжатия : С потерями
Размер потока : 141 Мбайт (9%)
Выравнивание : Разделение по промежуткам
Продолжительность промежутка : 42 мс. (1,00 видеокадр)
Время предзагрузки промежутка : 500 мс.
Аудио #2
Идентификатор : 2
Формат : AC-3
Формат/Информация : Audio Coding 3
Расширение режима : CM (complete main)
Идентификатор кодека : 2000
Продолжительность : 1 ч. 42 м.
Вид битрейта : Постоянный
Битрейт : 192 Кбит/сек
Каналы : 2 канала
Расположение каналов : Front: L R
Частота : 48,0 КГц
Битовая глубина : 16 бит
Метод сжатия : С потерями
Размер потока : 141 Мбайт (9%)
Выравнивание : Разделение по промежуткам
Продолжительность промежутка : 42 мс. (1,00 видеокадр)
Время предзагрузки промежутка : 500 мс.
Общее
Полное имя : Rim.otkritiy.gorod.1945.BDRip\Rim.otkritiy.gorod.1945.AC3.ITA.ac3
Формат : AC-3
Формат/Информация : Audio Coding 3
Размер файла : 141 Мбайт
Продолжительность : 1 ч. 42 м.
Режим общего битрейта : Постоянный
Общий поток : 192 Кбит/сек
Аудио
Формат : AC-3
Формат/Информация : Audio Coding 3
Расширение режима : CM (complete main)
Продолжительность : 1 ч. 42 м.
Вид битрейта : Постоянный
Битрейт : 192 Кбит/сек
Каналы : 2 канала
Расположение каналов : Front: L R
Частота : 48,0 КГц
Битовая глубина : 16 бит
Метод сжатия : С потерями
Размер потока : 141 Мбайт (100%)



Скачать Рим.открытый.город.Roma.citta.aperta.Rome.Open.City.(Роберто.Росселлини).[1945.драма.военный.BDRip].2x[MVO].torrent без регистрации
Золото ЗОЛОТАЯ РАЗДАЧА! СКАЧАННОЕ НЕ ЗАСЧИТЫВАЕТСЯ! Золото
Дата: Зарегистрирован   [ Тип: внутренний ] Как тут cкачать?
MAGNET ссылка
MAGNET ссылка


Скачать .torrent

17 KB

Статус: проверено
Скачан: торрент - 154 раз, раздача полностью - 29 раз
Размер: 1,59 GB
Оценка:  - (Голосов: 0)
Поблагодарили: 2
Поделиться ссылкой на эту раздачу с друзьями:
В контактеFacebookОдноклассникиTwitterLivejournalМой МирLiveinternet
 

 
Показать сообщения:    


Вы не можете начинать темы
Вы не можете отвечать на сообщения
Вы не можете редактировать свои сообщения
Вы не можете удалять свои сообщения
Вы не можете голосовать в опросах
Вы не можете прикреплять файлы к сообщениям
Вы можете скачивать файлы