Loading...
Error

Скачать Удача / Luck / Сезон 1 полный) (Michael Mann) [2011, драма, криминальный, HDTVRip] [AVO] (Ю.Сербин) торрент без регистрации

 
Статистика раздачи
Размер:  6,13 GB   |    Скачан:  133 раза
Сидов:  1  [  0 KB/s  ]  
 
Автор Сообщение

leon030982

[] 



Удача / Luck


Год выпуска: 2011
Страна: США | HBO
Жанр: драма, криминальный
Продолжительность: ~ 60 минут
Перевод: Авторский (одноголосый, закадровый) - Ю. Сербин
Субтитры: Нет
Режиссёр: Michael Mann
В ролях:

Dustin Hoffman, Gary Stevens, Tom Payne, Nick Nolte, John Ortiz, Ritchie Coster, Kevin Dunn, Dennis Farina, Jason Gedrick, Ian Hart, Richard Kind и др.
Описание:

Сериал «Удача» — новая драма канала HBO. Это проект известного режиссера Майкла Манна и создателя сериал «Дэдвуд» Дэвида Милча.
Сюжет сериала разворачивается вокруг мира лошадиных скачек и людей, с ним связанных — владельцев лошадей, игроков, жокеев и участников тотализаторов. Сериал рассказывает не только о скачках, но и об изнанке этого спорта — о том, что происходит на учебных заездах и в стойлах лошадей.
В ролях такие звезды как Дастин Хоффман, Деннис Фарина, Джон Ортиз, Ричард Кайнд, Иэн Харт, Кевин Данн, Ричи Костер, Джейсон Гедрик, Гари Стивенс, Том Пэйн, Кэрри Кондон, Гэри Стивенс и Ник Нолте.
Качество: HDTVRip
Формат: AVI
Видео кодек: DivX5
Аудио кодек: AC3
Видео: 720x400 (16:9), 23.976 fps, ~1500 kbps, ~0.170 bit/pixel
Аудио Rus: 48 kHz, 2 ch, ~192 kbps |Ю. Сербин|
Аудио Eng: 48 kHz, 2 ch, ~192 kbps |Original|
Релиз:
Перевод: Ю. Сербин
/ Сэмпл / ImDB[/color] / Кинопоиск


[b]Общее
Полное имя : E:\Luck.s01.hdtv.rus.eng.novafilm\luck.s01e01.hdtv.rus.eng. СПАМ
Формат : AVI
Формат/Информация : Audio Video Interleave
Размер файла : 678 Мбайт
Продолжительность : 1 ч. 0 м.
Общий поток : 1577 Кбит/сек
Программа кодирования : VirtualDubMod 1.5.10.2 (build 2542/release)
Библиотека кодирования : VirtualDubMod build 2542/release
Видео
Идентификатор : 0
Формат : MPEG-4 Visual
Параметр BVOP формата : 1
Параметр QPel формата : Нет
Параметр GMC формата : Без точки перехода
Параметр матрицы формата : Default (H.263)
Режим смешивания : Сжатый битовый поток
Идентификатор кодека : DX50
Идентификатор кодека/Подсказка : DivX 5
Продолжительность : 1 ч. 0 м.
Битрейт : 1179 Кбит/сек
Ширина : 720 пикс.
Высота : 400 пикс.
Соотношение сторон : 16:9
Частота кадров : 23,976 кадр/сек
Цветовое пространство : YUV
Подвыборка цветности : 4:2:0
Битовая глубина : 8 бит
Тип развёртки : Прогрессивная
Метод сжатия : С потерями
Бит/(Пиксели*Кадры) : 0.171
Размер потока : 507 Мбайт (75%)
Библиотека кодирования : DivX 6.8.3-6.8.4 (UTC 2008-06-07)
Аудио #1
Идентификатор : 1
Формат : AC-3
Формат/Информация : Audio Coding 3
Расширение режима : CM (complete main)
Идентификатор кодека : 2000
Продолжительность : 1 ч. 0 м.
Вид битрейта : Постоянный
Битрейт : 192 Кбит/сек
Каналы : 2 канала
Расположение каналов : Front: L R
Частота : 48,0 КГц
Битовая глубина : 16 бит
Метод сжатия : С потерями
Размер потока : 82,5 Мбайт (12%)
Выравнивание : Разделение по промежуткам
Продолжительность промежутка : 42 мс. (1,00 видеокадр)
Время предзагрузки промежутка : 500 ms
Аудио #2
Идентификатор : 2
Формат : AC-3
Формат/Информация : Audio Coding 3
Расширение режима : CM (complete main)
Идентификатор кодека : 2000
Продолжительность : 1 ч. 0 м.
Вид битрейта : Постоянный
Битрейт : 192 Кбит/сек
Каналы : 2 канала
Расположение каналов : Front: L R
Частота : 48,0 КГц
Битовая глубина : 16 бит
Метод сжатия : С потерями
Размер потока : 82,5 Мбайт (12%)
Выравнивание : Разделение по промежуткам
Продолжительность промежутка : 42 мс. (1,00 видеокадр)
Время предзагрузки промежутка : 500 ms
Внимание! Раздача ведётся путём добавления новых серий; при каждом добавлении создётся новый торрент. Чтобы начать докачку новой серии, пользователям необходимо сделать следующее:

1) остановить скачивание,
2) удалить старый торрент у себя из клиента (старые серии удалять не надо),
3) скачать новый торрент и запустить его у себя в клиенте вместо старого, при этом указать клиенту путь в старую папку куда и должно происходить скачивание новых серий.
Ваш клиент при этом должен произвести хеширование (проверку) старой папки (если не производит сам - помогите ему сделать это), и будет докачивать только те серии которых у вас ещё нет. Старые серии при этом не удаляются, а продолжают раздаваться!
Eсли вы уже удалили старые серии, то предотвратить повторную закачку старых серий можно, отжав галочку в соответсвующих местах при запуске нового торрента.

[align=center] [/font]





Скачать Удача.Luck.Сезон.1.полный).(Michael.Mann).[2011.драма.криминальный.HDTVRip].[AVO].(Ю.Сербин).torrent без регистрации
Золото ЗОЛОТАЯ РАЗДАЧА! СКАЧАННОЕ НЕ ЗАСЧИТЫВАЕТСЯ! Золото
Дата: Зарегистрирован   [ Тип: внутренний ] Как тут cкачать?
MAGNET ссылка
MAGNET ссылка


Скачать .torrent

32 KB

Статус: проверено DHT
Скачан: торрент - 133 раз, раздача полностью - 6 раз
Размер: 6,13 GB
Оценка:  - (Голосов: 0)
Поблагодарили: 1
Поделиться ссылкой на эту раздачу с друзьями:
В контактеFacebookОдноклассникиTwitterLivejournalМой МирLiveinternet
 

 
Показать сообщения:    


Вы не можете начинать темы
Вы не можете отвечать на сообщения
Вы не можете редактировать свои сообщения
Вы не можете удалять свои сообщения
Вы не можете голосовать в опросах
Вы не можете прикреплять файлы к сообщениям
Вы можете скачивать файлы