Loading...
Error

Скачать Семь морей до Кале / Seven seas to Calais (Рудольф Мате, Примо Зеглио) [1962, Приключения, TVRip] [MVO] торрент без регистрации

 
Статистика раздачи
Размер:  1,22 GB   |    Скачан:  126 раз

Полного источника не было: 8 месяцев

 
Автор Сообщение

Marsianka

[] 

Название на русском: Семь морей до Кале
Название в оригинале: Seven seas to Calais

Страна: Италия
Жанр: Приключения
Год выпуска: 1962
Продолжительность: 01:37:26
Перевод: Профессиональный (многоголосый, закадровый)
Субтитры: нет

Режиссёр: Рудольф Мате / Rudolph Mate, Примо Зеглио / Primo Zeglio
В ролях: Rod Taylor (Фрэнсис Дрейк), Keith Michell (Малькольм Марш), Irene Worth (Елизавета I), Edy Vessel (Арабелла), Mario Girotti / он же - Terence Hill (Бабингтон), Gianni Cajafa (Том), Rossella D'Aquino (Картофель), Esmeralda Ruspoli (Мария Шотландская)

Описание фильма:
На счету отважного мореплавателя практически не было поражений. Королева Англии пожаловала ему титул пэра. Но на радостях Дрейк так напился, что его фрегат взяли в плен испанцы. Дрейк еле унес ноги и поклялся отомстить.



Качество: TVRip
Формат: AVI
Видео: 640x368 (1.74:1), 25 fps, XviD build 47 ~1585 kbps avg, 0.27 bit/pixel
Аудио: MP3 44.100 kHz, MPEG Layer 3, 2 ch, ~192.00 kbps avg











Format : AVI
Format/Info : Audio Video Interleave
File size : 1.22 GiB
Duration : 1h 37mn
Overall bit rate : 1 787 Kbps
Writing application : VirtualDubMod 1.5.10.2 (build 2540/release)
Writing library : VirtualDubMod build 2540/release

Video
ID : 0
Format : MPEG-4 Visual
Format profile : Advanced Simple@L5
Format settings, BVOP : 1
Format settings, QPel : No
Format settings, GMC : No warppoints
Format settings, Matrix : Custom
Codec ID : XVID
Codec ID/Hint : XviD
Duration : 1h 37mn
Bit rate : 1 585 Kbps
Width : 640 pixels
Height : 368 pixels
Display aspect ratio : 16:9
Frame rate : 25.000 fps
Color space : YUV
Chroma subsampling : 4:2:0
Bit depth : 8 bits
Scan type : Progressive
Compression mode : Lossy
Bits/(Pixel*Frame) : 0.269
Stream size : 1.08 GiB (89%)
Writing library : XviD 1.2.0.dev47 (UTC 2006-11-01)

Audio
ID : 1
Format : MPEG Audio
Format version : Version 1
Format profile : Layer 3
Mode : Joint stereo
Codec ID : 55
Codec ID/Hint : MP3
Duration : 1h 37mn
Bit rate mode : Constant
Bit rate : 192 Kbps
Channel(s) : 2 channels
Sampling rate : 44.1 KHz
Compression mode : Lossy
Stream size : 134 MiB (11%)
Alignment : Split accross interleaves
Interleave, duration : 40 ms (1.00 video frame)
Interleave, preload duration : 500 ms

Релиз от: Ultam



Скачать Семь.морей.до.Кале.Seven.seas.to.Calais.(Рудольф.Мате.Примо.Зеглио).[1962.Приключения.TVRip].[MVO].torrent без регистрации
Золото ЗОЛОТАЯ РАЗДАЧА! СКАЧАННОЕ НЕ ЗАСЧИТЫВАЕТСЯ! Золото
Дата: Зарегистрирован   [ Тип: внутренний ] Как тут cкачать?
MAGNET ссылка
MAGNET ссылка


Скачать .torrent

13 KB

Статус: проверено
Скачан: торрент - 126 раз, раздача полностью - 34 раз
Размер: 1,22 GB
Оценка:  - (Голосов: 0)
Поблагодарили: 3
Поделиться ссылкой на эту раздачу с друзьями:
В контактеFacebookОдноклассникиTwitterLivejournalМой МирLiveinternet
 

 
Показать сообщения:    


Вы не можете начинать темы
Вы не можете отвечать на сообщения
Вы не можете редактировать свои сообщения
Вы не можете удалять свои сообщения
Вы не можете голосовать в опросах
Вы не можете прикреплять файлы к сообщениям
Вы можете скачивать файлы