Loading...
Error

Скачать Тысячелетие / Миллениум / Прерванный полет / Millennium (Майкл Андерсон) [1989, фантастика, DVDRip-AVC] [Dub] (Мосфильм) + [DVO] (Гланц и Королева) торрент без регистрации

 
Статистика раздачи
Размер:  1,31 GB   |    Скачан:  171 раз
Сидов:  1  [  0 KB/s  ]  
 
Автор Сообщение

leon030982

[] 

Тысячелетие / Миллениум / Прерванный полет / Millennium / Dub (Мосфильм) + DVO (Гланц и Королева) + Original + Sub (Eng)
Страна: США
Жанр: фантастика
Год выпуска: 1989
Продолжительность: 01:46:09
Перевод 1: Профессиональный (дублированный) Мосфильм 1990, Роли дублировали: Р. Панков, И. Губанова, А. Белявский, А. Рахленко, С. Захаров, В. Рождественский, С. Мартынов.
Перевод 2: Профессиональный (двухголосый закадровый) Гланц и Королева
Оригинальная аудиодорожка: английский
Cубтитры: английские
Разделы (Chapters): из оригинального DVD
Режиссер: Майкл Андерсон / Michael Anderson
В ролях: Крис Кристофферсон, Шерил Лэдд, Дэниел Дж. Траванти, Роберт Джой, Ллойд Бокнер, Брент Карвер, Дэвид Макилрайт, Мори Чайкин, Эл Уоксмен, Лоуренс Дэйн
Описание: Далекое будущее. Земная цивилизация, состоящая из неспособных на продолжение рода мутантов, находится на грани вымирания. Единственное решение для спасения человечества — в его прошлом. С помощью Ворот Времени спец отряды из будущего похищают пассажиров с самолетов за несколько секунд до крушения, заменяя их искусственными телами. Долгое время в нашем столетии ничего не подозревают, но тайное не может оставаться таковым вечно.

Качество видео: DVDRip-AVC
Формат видео: MKV
Видео: x264 Hi@4.1 (ref=6) 720x480 @16:9 23.976fps 1.4mbit
Аудио 1: MP3 2Ch 48KHz 128kbit DUB USSR Mosfilm 1990
Аудио 2: AC3 2Ch 48KHz 192kbit ORIG
Аудио 3: AAC-HE (SBR) v2 (PS) 2Ch 48KHz 48kbit 2VO(Glants+Korolyova)
Формат субтитров: softsub (SRT) DVD Closed Caption
Исходный дубляж в русских интернетах существует только в MP3 (любые другие варианты, если встретятся,
скорее всего, получены из него путем конвертирования). Запись со старой советской кинопленки, поэтому звук фактически моно.
General
Unique ID : 196390465715505042402052913928715980948 (0x93BF6D88FA4DD76B8BD4705C47115094)
Complete name : E:\~DVD Rip2-My~\Тысячелетие @ Миллениум @ Прерванный полет @ Millennium 1989 DVDRIP-AVC\Millennium 1989 DVDRIP-AVC Hi@4.1 (dub,orig,mvo,sub-eng) v.4.mkv
Format : Matroska
Format version : Version 2
File size : 1.31 GiB
Duration : 1h 46mn
Overall bit rate : 1 762 Kbps
Encoded date : UTC 2012-01-26 22:13:59
Writing application : mkvmerge v4.5.0 ('Speed of Light') сборка от Feb 1 2011 02:10:32
Writing library : libebml v1.2.0 + libmatroska v1.1.0
Video
ID : 5
Format : AVC
Format/Info : Advanced Video Codec
Format profile : High@L4.1
Format settings, CABAC : Yes
Format settings, ReFrames : 6 frames
Codec ID : V_MPEG4/ISO/AVC
Duration : 1h 46mn
Nominal bit rate : 1 440 Kbps
Width : 720 pixels
Height : 480 pixels
Display aspect ratio : 16:9
Original display aspect ratio : 3:2
Frame rate : 23.976 fps
Standard : NTSC
Color space : YUV
Chroma subsampling : 4:2:0
Bit depth : 8 bits
Scan type : Progressive
Bits/(Pixel*Frame) : 0.174
Title : x264 Hi@4.1 ref=6 720x480 @16:9 24fps 1.4mbit
Writing library : x264 core 120 r2120bm 0c7dab9
Encoding settings : cabac=1 / ref=6 / deblock=1:-1:-1 / analyse=0x3:0x133 / me=tesa / subme=11 / psy=1 / psy_rd=1.00:0.15 / mixed_ref=1 / me_range=24 / chroma_me=1 / trellis=2 / 8x8dct=1 / cqm=0 / deadzone=21,11 / fast_pskip=0 / chroma_qp_offset=-3 / threads=6 / sliced_threads=0 / nr=0 / decimate=1 / interlaced=0 / bluray_compat=0 / constrained_intra=0 / bframes=16 / b_pyramid=2 / b_adapt=2 / b_bias=0 / direct=3 / weightb=1 / open_gop=0 / weightp=2 / keyint=250 / keyint_min=23 / scenecut=40 / intra_refresh=0 / rc_lookahead=60 / rc=2pass / mbtree=1 / bitrate=1440 / ratetol=1.0 / qcomp=0.60 / qpmin=0 / qpmax=69 / qpstep=4 / cplxblur=20.0 / qblur=0.5 / ip_ratio=1.40 / aq=1:1.00
Language : English
Default : No
Forced : No
Audio #1
ID : 1
Format : MPEG Audio
Format version : Version 1
Format profile : Layer 3
Mode : Joint stereo
Mode extension : MS Stereo
Codec ID : A_MPEG/L3
Codec ID/Hint : MP3
Duration : 1h 46mn
Bit rate mode : Constant
Bit rate : 128 Kbps
Channel(s) : 2 channels
Sampling rate : 48.0 KHz
Compression mode : Lossy
Stream size : 97.2 MiB (7%)
Title : MP3 2Ch 48KHz 128kbit DUB USSR Mosfilm 1990
Language : Russian
Default : Yes
Forced : No
Audio #2
ID : 2
Format : AC-3
Format/Info : Audio Coding 3
Format profile : Dolby Digital
Mode extension : CM (complete main)
Codec ID : A_AC3
Duration : 1h 46mn
Bit rate mode : Constant
Bit rate : 192 Kbps
Channel(s) : 2 channels
Channel positions : Front: L R
Sampling rate : 48.0 KHz
Bit depth : 16 bits
Compression mode : Lossy
Delay relative to video : 16ms
Stream size : 146 MiB (11%)
Title : AC3 2Ch 48KHz 192kbit ORIG
Language : English
Default : No
Forced : No
Audio #3
ID : 3
Format : AAC
Format/Info : Advanced Audio Codec
Format profile : HE-AACv2 / HE-AAC / LC
Codec ID : A_AAC
Duration : 1h 46mn
Channel(s) : 2 channels / 1 channel / 1 channel
Channel positions : Front: L R / Front: C / Front: C
Sampling rate : 48.0 KHz / 48.0 KHz / 24.0 KHz
Compression mode : Lossy
Title : AAC-HE (SBR) v2 (PS) 2Ch 48KHz 48kbit 2VO(Glants+Korolyova)
Language : Russian
Default : No
Forced : No
Text
ID : 4
Format : UTF-8
Codec ID : S_TEXT/UTF8
Codec ID/Info : UTF-8 Plain Text
Title : SRT UTF8 (DVD Closed Captions)
Language : English
Default : No
Forced : No
Menu
00:00:00.000 : :Chapter 1
00:03:39.367 : :Chapter 2
00:05:23.467 : :Chapter 3
00:07:25.967 : :Chapter 4
00:09:20.100 : :Chapter 5
00:11:29.967 : :Chapter 6
00:12:47.701 : :Chapter 7
00:16:45.834 : :Chapter 8
00:18:16.434 : :Chapter 9
00:21:09.667 : :Chapter 10
00:23:44.300 : :Chapter 11
00:27:04.800 : :Chapter 12
00:30:01.167 : :Chapter 13
00:32:18.934 : :Chapter 14
00:35:25.034 : :Chapter 15
00:36:29.034 : :Chapter 16
00:39:52.134 : :Chapter 17
00:43:51.767 : :Chapter 18
00:46:42.634 : :Chapter 19
00:49:21.534 : :Chapter 20
00:52:17.001 : :Chapter 21
00:55:42.501 : :Chapter 22
00:56:50.834 : :Chapter 23
01:03:11.334 : :Chapter 24
01:06:13.567 : :Chapter 25
01:09:31.934 : :Chapter 26
01:11:46.301 : :Chapter 27
01:15:23.801 : :Chapter 28
01:19:43.535 : :Chapter 29
01:21:28.035 : :Chapter 30
01:24:46.769 : :Chapter 31
01:29:20.269 : :Chapter 32
01:33:03.003 : :Chapter 33
01:36:08.370 : :Chapter 34
01:37:49.737 : :Chapter 35
01:41:22.104 : :Chapter 36



Скачать Тысячелетие.Миллениум.Прерванный.полет.Millennium.(Майкл.Андерсон).[1989.фантастика.DVDRip-AVC].[Dub].(Мосфильм).+.[DVO].(Гланц.и.Королева).torrent без регистрации
Золото ЗОЛОТАЯ РАЗДАЧА! СКАЧАННОЕ НЕ ЗАСЧИТЫВАЕТСЯ! Золото
Дата: Зарегистрирован   [ Тип: внутренний ] Как тут cкачать?
MAGNET ссылка
MAGNET ссылка


Скачать .torrent

14 KB

Статус: проверено DHT
Скачан: торрент - 171 раз, раздача полностью - 43 раз
Размер: 1,31 GB
Оценка:  - (Голосов: 0)
Поблагодарили: 2
Поделиться ссылкой на эту раздачу с друзьями:
В контактеFacebookОдноклассникиTwitterLivejournalМой МирLiveinternet
 

 
Показать сообщения:    


Вы не можете начинать темы
Вы не можете отвечать на сообщения
Вы не можете редактировать свои сообщения
Вы не можете удалять свои сообщения
Вы не можете голосовать в опросах
Вы не можете прикреплять файлы к сообщениям
Вы можете скачивать файлы