Loading...
Error

Скачать Холодным взором / Medium Cool (Хэскелл Уэкслер) [1969, драма, DVDRip] [VO] торрент без регистрации

 
Статистика раздачи
Размер:  1,73 GB   |    Скачан:  161 раз

Полного источника не было: 3 месяца 19 дней

 
Автор Сообщение

leon030982

[] 

Холодным взором / Medium Cool
Страна: США
Жанр: Драма
Год выпуска: 1969
Продолжительность: 1:50:39
Перевод: Одноголосый закадровый
Cубтитры: русские, английские
Оригинальная аудиодорожка: английский
Режиссер: Хэскелл Уэкслер / Haskell Wexler
В ролях: Роберт Форстер, Верна Блум, Питер Бонерз, Марианна Хилл, Гарольд Бланкеншип, Чарльз Джиари, Сид МакКой, Кристин Бергсторм, Вильям Сикинген, Роберт МакЭндрю
Описание: Бурное лето 1968 год в Чикаго, в воздухе висит политическое напряжение, чреватое всплесками насилия. Телерепортер начинает заниматься темой нарастающего возмущения в черных гетто города, попутно обнаруживая, что информация, собранная тележурналистами, используется ЦРУ. Сюжетные перипетии вплетены в реальные события того времени, факт и вымысел пересекаются под неожиданными углами, актеры участвуют настоящих митингах и беспорядках на улицах города.

Доп. информация: “Look out Haskell, it’s real!” | The Sticking Place - исчерпывающе, на английском.
От себя: Озвучено автором перевода, в надежде, что субтитры больше не потеряются.
Сэмпл: http://multi-up.com/641344
Качество видео: DVDRip
Формат видео: AVI
Видео: XviD, 720x400 (1.76:1), 23.976 fps, ~1727 kbps avg, 0.256 bit/pixel
Аудио 1: Russian, AC3 Dolby Digital, 2/0 (L,R) ch, 48 kHz, 384 kbps
Аудио 2: English, MPEG Layer 3, 2 ch, 48 kHz, 128 kbps
Формат субтитров: softsub (SRT)
General
Complete name : D:\torrents.ru\video\Medium Cool 1969\Medium Cool 1969.avi
Format : AVI
Format/Info : Audio Video Interleave
File size : 1.73 GiB
Duration : 1h 50mn
Overall bit rate : 2 240 Kbps
Writing application : VirtualDubMod 1.5.10.2 (build 2542/release)
Writing library : VirtualDubMod build 2542/release
Video
ID : 0
Format : MPEG-4 Visual
Format profile : Advanced Simple@L5
Format settings, BVOP : 2
Format settings, QPel : No
Format settings, GMC : No warppoints
Format settings, Matrix : Default (MPEG)
Codec ID : XVID
Codec ID/Hint : XviD
Duration : 1h 50mn
Bit rate : 1 727 Kbps
Width : 704 pixels
Height : 400 pixels
Display aspect ratio : 16:9
Frame rate : 23.976 fps
Color space : YUV
Chroma subsampling : 4:2:0
Bit depth : 8 bits
Scan type : Progressive
Compression mode : Lossy
Bits/(Pixel*Frame) : 0.256
Stream size : 1.34 GiB (77%)
Writing library : XviD 63
Audio #1
ID : 1
Format : AC-3
Format/Info : Audio Coding 3
Mode extension : CM (complete main)
Codec ID : 2000
Duration : 1h 50mn
Bit rate mode : Constant
Bit rate : 384 Kbps
Channel(s) : 2 channels
Channel positions : Front: L R
Sampling rate : 48.0 KHz
Bit depth : 16 bits
Compression mode : Lossy
Stream size : 304 MiB (17%)
Alignment : Aligned on interleaves
Interleave, duration : 42 ms (1.00 video frame)
Interleave, preload duration : 512 ms
Audio #2
ID : 2
Format : MPEG Audio
Format version : Version 1
Format profile : Layer 3
Mode : Joint stereo
Mode extension : MS Stereo
Codec ID : 55
Codec ID/Hint : MP3
Duration : 1h 50mn
Bit rate mode : Constant
Bit rate : 32.0 Kbps
Channel(s) : 2 channels
Sampling rate : 48.0 KHz
Compression mode : Lossy
Delay relative to video : 96ms
Stream size : 88.3 MiB (5%)
Alignment : Split accross interleaves
Interleave, duration : 24 ms (0.58 video frame)
Interleave, preload duration : 447 ms
Writing library : LAME3.97



Скачать Холодным.взором.Medium.Cool.(Хэскелл.Уэкслер).[1969.драма.DVDRip].[VO].torrent без регистрации
Золото ЗОЛОТАЯ РАЗДАЧА! СКАЧАННОЕ НЕ ЗАСЧИТЫВАЕТСЯ! Золото
Дата: Зарегистрирован   [ Тип: внутренний ] Как тут cкачать?
MAGNET ссылка
MAGNET ссылка


Скачать .torrent

18 KB

Статус: проверено
Скачан: торрент - 161 раз, раздача полностью - 13 раз
Размер: 1,73 GB
Оценка:  - (Голосов: 0)
Поблагодарили: 1
Поделиться ссылкой на эту раздачу с друзьями:
В контактеFacebookОдноклассникиTwitterLivejournalМой МирLiveinternet
 

 
Показать сообщения:    


Вы не можете начинать темы
Вы не можете отвечать на сообщения
Вы не можете редактировать свои сообщения
Вы не можете удалять свои сообщения
Вы не можете голосовать в опросах
Вы не можете прикреплять файлы к сообщениям
Вы можете скачивать файлы