Loading...
Error

Скачать Великий Мерлин [Полная версия]/ Merlin (Стив Баррон) [1998, Фэнтези, DVDRip] [MVO] торрент без регистрации

 
Статистика раздачи
Размер:  2,92 GB   |    Скачан:  269 раз
Сидов:  3  [  0 KB/s  ]  
 
Автор Сообщение

leon030982

[] 

Великий Мерлин / Merlin / Полная версия
Страна: США, Великобритания
Жанр: Фэнтези
Год выпуска: 1998
Продолжительность: 01:27:18 + 01:27:37
Перевод: Профессиональный (многоголосый закадровый) (Лизард)
Cубтитры: нет
Режиссер: Стив Баррон / Steve Barron
В ролях: Рутгер Хауэр, Миранда Ричардсон, Сэм Нилл, Мартин Шорт, Джеймс Эрл Джонс, Хелена Бонэм Картер, Изабелла Росселлини, Пол Курран, Джон Гилгуд, Джереми Шеффилд, Лена Хеди, Джон Макэнери, Билли Уайтлоу, Роджер Эштон-Гриффитс, Джанин Эсер, Питер Вудторп, Николас Грейс, Тимоти Бэйтсон, Питер Эйри, Вернон Добтчефф, Питер Бейлисс, Николас Клэй, Себастьян Роше, Томас Локиер, Эмма Льюис, Дэниэл Брокебэнк
Описание: Роскошный костюмированный фильм Стива Бэррона повествует о жизни легендарного волшебника Мерлина и его борьбе против сил зла во главе с коварной Королевой Тьмы колдуньей Мэб. Она и ее плутоватый бес Фрик хотели сделать Мерлина вождем Темных сил. Но Мерлин отказался, влюбившись в прекрасную Нимуэ. Разгневанная Мэб отдала Нимуэ в руки короля язычников Вортигерна, наславшего на нее страшного огнедышащего дракона. А Мерлин, пройдя в поисках Нимуэ через многочисленные испытания, отдает все силы воспитанию юного короля Артура, поклявшегося построить золотой город Камелот и найти Святой Грааль, чтобы избавить мир от голода и страданий...

Сэмпл: http://multi-up.com/641355
Качество видео: DVDRip
Формат видео: AVI
Видео: XviD build 50, 704x528 (1.33:1), 25 fps, 1998 kbps avg
Аудио: AC3 Dolby Digital, 48 kHz, 3/2 (L,C,R,l,r) + LFE ch, 384 kbps avg MVO(Lizard)
General
Complete name : D:\НА РУТРЕКЕР\Velikiy.Merlin.(1-2.chasti.iz.2).1998.XviD.DVDRip-Dego\Velikiy.Merlin.(1.chast.iz.2).1998.XviD.DVDRip-Dego.avi
Format : AVI
Format/Info : Audio Video Interleave
File size : 1.46 GiB
Duration : 1h 27mn
Overall bit rate : 2 392 Kbps
Writing application : VirtualDubMod 1.5.10.2 (build 2540/release)
Writing library : VirtualDubMod build 2540/release
Video
ID : 0
Format : MPEG-4 Visual
Format profile : AdvancedSimple@L5
Format settings, BVOP : Yes
Format settings, QPel : No
Format settings, GMC : No warppoints
Format settings, Matrix : Default (MPEG)
Codec ID : XVID
Codec ID/Hint : XviD
Duration : 1h 27mn
Bit rate : 1 998 Kbps
Width : 704 pixels
Height : 528 pixels
Display aspect ratio : 4/3
Frame rate : 25.000 fps
Resolution : 24 bits
Colorimetry : 4:2:0
Scan type : Progressive
Bits/(Pixel*Frame) : 0.215
Stream size : 1.22 GiB (84%)
Writing library : XviD 1.2.1 (UTC 2008-12-04)
Audio
ID : 1
Format : AC-3
Format/Info : Audio Coding 3
Codec ID : 2000
Duration : 1h 27mn
Bit rate mode : Constant
Bit rate : 384 Kbps
Channel(s) : 6 channels
Channel positions : Front: L C R, Surround: L R, LFE
Sampling rate : 48.0 KHz
Stream size : 240 MiB (16%)
Alignment : Split accross interleaves
Interleave, duration : 40 ms (1.00 video frame)
Interleave, preload duration : 500 ms
General
Complete name : D:\НА РУТРЕКЕР\Velikiy.Merlin.(1-2.chasti.iz.2).1998.XviD.DVDRip-Dego\Velikiy.Merlin.(2.chast.iz.2).1998.XviD.DVDRip-Dego.avi
Format : AVI
Format/Info : Audio Video Interleave
File size : 1.46 GiB
Duration : 1h 27mn
Overall bit rate : 2 383 Kbps
Writing application : VirtualDubMod 1.5.10.2 (build 2540/release)
Writing library : VirtualDubMod build 2540/release
Video
ID : 0
Format : MPEG-4 Visual
Format profile : AdvancedSimple@L5
Format settings, BVOP : Yes
Format settings, QPel : No
Format settings, GMC : No warppoints
Format settings, Matrix : Default (MPEG)
Codec ID : XVID
Codec ID/Hint : XviD
Duration : 1h 27mn
Bit rate : 1 990 Kbps
Width : 704 pixels
Height : 528 pixels
Display aspect ratio : 4/3
Frame rate : 25.000 fps
Resolution : 24 bits
Colorimetry : 4:2:0
Scan type : Progressive
Bits/(Pixel*Frame) : 0.214
Stream size : 1.22 GiB (83%)
Writing library : XviD 1.2.1 (UTC 2008-12-04)
Audio
ID : 1
Format : AC-3
Format/Info : Audio Coding 3
Codec ID : 2000
Duration : 1h 27mn
Bit rate mode : Constant
Bit rate : 384 Kbps
Channel(s) : 6 channels
Channel positions : Front: L C R, Surround: L R, LFE
Sampling rate : 48.0 KHz
Stream size : 241 MiB (16%)
Alignment : Split accross interleaves
Interleave, duration : 40 ms (1.00 video frame)
Interleave, preload duration : 500 ms



Скачать Великий.Мерлин.[Полная.версия].Merlin.(Стив.Баррон).[1998.Фэнтези.DVDRip].[MVO].torrent без регистрации
Золото ЗОЛОТАЯ РАЗДАЧА! СКАЧАННОЕ НЕ ЗАСЧИТЫВАЕТСЯ! Золото
Дата: Зарегистрирован   [ Тип: внутренний ] Как тут cкачать?
MAGNET ссылка
MAGNET ссылка


Скачать .torrent

15 KB

Статус: проверено
Скачан: торрент - 269 раз, раздача полностью - 421 раз
Размер: 2,92 GB
Оценка:  5 (Голосов: 1)
Поблагодарили: 4
Поделиться ссылкой на эту раздачу с друзьями:
В контактеFacebookОдноклассникиTwitterLivejournalМой МирLiveinternet
 

 

Alexandr0000

[] 

Фильм явно в чем-то похож на властелин колец, и в нем чувствуется качество. Спасибо автору за раздачу!
 
Показать сообщения:    


Вы не можете начинать темы
Вы не можете отвечать на сообщения
Вы не можете редактировать свои сообщения
Вы не можете удалять свои сообщения
Вы не можете голосовать в опросах
Вы не можете прикреплять файлы к сообщениям
Вы можете скачивать файлы