Loading...
Error

Скачать Настоящий детектив / True Detective (сезон 02) (Кэри Фукунага) [2015, драма, криминал, HDTVRip-AVC] 2x[MVO (Novamedia, BaiBaKo)]+[DVO (Кубик в кубе)]+[Eng]+[Sub Rus] торрент без регистрации

 
Статистика раздачи
Размер:  12,88 GB   |    Скачан:  419 раз
Сидов:  1  [  0 KB/s  ]  
 
Автор Сообщение

МихаНЕзатор

[] 

Информация о фильме
Название: Настоящий детектив
Оригинальное название: True Detective
Год выхода: 2015
Жанр: Драма, криминал
Режиссер: Джастин Лин, Дэниэл Эттиэс, Янус Мец Педерсен, Мигель Сапочник

В ролях: Колин Фаррелл, Рэйчел МакАдамс, Тейлор Китч, Винс Вон, У. Эрл Браун, Крис Керсон, К.С. Ли, Кристофер Джеймс Бэйкер, Майкл Ирби, Тимоти В. Мерфи, Адриа Архона, Миранда Рэй Майо, Келли Райлли

О фильме: Мы живем в мире, который заслуживаем. В новом сезоне культового сериала зрителей ждут новое расследование и новые герои. Мрачное убийство, произошедшее в Калифорнии объединяет четырех персонажей в исполнении Колина Фаррелла, Рэйчел МакАдамс, Тейлора Китча и Винса Вона. Они объединяются, чтобы начать охоту на таинственного убийцу и разоблачить тех, чьи приказы он выполняет.



Страна: США
Студия: HBO
Продолжительность: 1 x ~ 00:50:00
Перевод: Профессиональный многоголосый (Novamedia, BaiBaKo), профессиональный двухголосый (Кубик в кубе)

Файл
Кодек: H.264
Качество: HDTVRip-AVC
Видео: 1024x576 at 25 fps, x264@L3.1, ~2105 kbps avg
Звук:
Аудио#1: Russian (Amedia): 48 kHz, AC3, 3/2 (L,C,R,l,r) ch, ~384.00 kbps avg
Аудио#2: Russian (Кубик в кубе): 48 kHz, AC3, 3/2 (L,C,R,l,r) ch, ~384.00 kbps avg
Аудио#3: Russian (BaiBaKo): 48 kHz, AC3, 3/2 (L,C,R,l,r) ch, ~384.00 kbps avg
Аудио#4: English: 48 kHz, AAC-LC, 2/0 (L,R) ch, ~160.00 kbps avg
Субтитры: Russian (Novamedia)

АНОНСЫ ПОПУЛЯРНЫХ РАЗДАЧ


Торрент обновлён, добавлена 8-я серия и два перевода!
▼ Внимание!!!
Раздача ведется путём добавления новых серий; при каждом добавлении создается новый торрент.
Каждая новая раздача дополняет предыдущие скачанные серии новыми звуковыми дорожками и субтитрами.

General
Unique ID : 253919611393816762174658130770818320207 (0xBF072367F5BC183AA55D80458099474F)
Complete name : True Detective S02-E01 The Western Book of the Dead.mkv
Format : Matroska
Format version : Version 2
File size : 1.55 GiB
Duration : 1h 0mn
Overall bit rate : 3 643 Kbps
Movie name : True Detective S02-E01 The Western Book of the Dead [576p]
Encoded date : UTC 2015-06-29 13:12:52
Writing application : mkvmerge v8.1.0 ('Psychedelic Postcard') 64bit
Writing library : libebml v1.3.1 + libmatroska v1.4.2
DURATION : 01:00:02.216000000
NUMBER_OF_FRAMES : 839
NUMBER_OF_BYTES : 26642
_STATISTICS_WRITING_APP : mkvmerge v8.1.0 ('Psychedelic Postcard') 64bit
_STATISTICS_WRITING_DATE_UTC : 2015-06-29 13:12:52
_STATISTICS_TAGS : BPS DURATION NUMBER_OF_FRAMES NUMBER_OF_BYTES

Video
ID : 1
Format : AVC
Format/Info : Advanced Video Codec
Format profile : High@L3.1
Format settings, CABAC : Yes
Format settings, ReFrames : 5 frames
Codec ID : V_MPEG4/ISO/AVC
Duration : 1h 0mn
Bit rate : 2 105 Kbps
Width : 1 024 pixels
Height : 576 pixels
Display aspect ratio : 16:9
Frame rate mode : Constant
Frame rate : 23.976 fps
Color space : YUV
Chroma subsampling : 4:2:0
Bit depth : 8 bits
Scan type : Progressive
Bits/(Pixel*Frame) : 0.149
Stream size : 886 MiB (56%)
Title : True Detective S02-E01 The Western Book of the Dead
Writing library : x264 core 146 r2538kMod 121396c
Encoding settings : cabac=1 / ref=6 / deblock=1:0:0 / analyse=0x3:0x133 / me=umh / subme=10 / psy=1 / fade_compensate=0.00 / psy_rd=1.00:0.00 / mixed_ref=1 / me_range=24 / chroma_me=1 / trellis=2 / 8x8dct=1 / cqm=0 / deadzone=21,11 / fast_pskip=1 / chroma_qp_offset=-2 / threads=10 / lookahead_threads=1 / sliced_threads=0 / nr=0 / decimate=1 / interlaced=0 / bluray_compat=1 / constrained_intra=0 / fgo=0 / bframes=3 / b_pyramid=1 / b_adapt=2 / b_bias=0 / direct=3 / weightb=1 / open_gop=0 / weightp=1 / keyint=240 / keyint_min=1 / scenecut=40 / intra_refresh=0 / rc_lookahead=60 / rc=2pass / mbtree=1 / bitrate=2105 / ratetol=1.0 / qcomp=0.60 / qpmin=0 / qpmax=69 / qpstep=4 / cplxblur=20.0 / qblur=0.5 / ip_ratio=1.40 / aq=1:1.00
Language : English
Default : Yes
Forced : No
DURATION : 01:00:51.440000000
NUMBER_OF_FRAMES : 87547
NUMBER_OF_BYTES : 960555708
_STATISTICS_WRITING_APP : mkvmerge v8.1.0 ('Psychedelic Postcard') 64bit
_STATISTICS_WRITING_DATE_UTC : 2015-06-29 13:12:52
_STATISTICS_TAGS : BPS DURATION NUMBER_OF_FRAMES NUMBER_OF_BYTES

Audio #1
ID : 2
Format : AC-3
Format/Info : Audio Coding 3
Mode extension : CM (complete main)
Format settings, Endianness : Big
Codec ID : A_AC3
Duration : 1h 0mn
Bit rate mode : Constant
Bit rate : 384 Kbps
Channel(s) : 6 channels
Channel positions : Front: L C R, Side: L R, LFE
Sampling rate : 48.0 KHz
Bit depth : 16 bits
Compression mode : Lossy
Stream size : 167 MiB (11%)
Title : MVO Novamedia - AC3 5.1 48KHz@384kbps
Language : Russian
Default : Yes
Forced : No

Audio #2
ID : 3
Format : AC-3
Format/Info : Audio Coding 3
Mode extension : CM (complete main)
Format settings, Endianness : Big
Codec ID : A_AC3
Duration : 1h 0mn
Bit rate mode : Constant
Bit rate : 384 Kbps
Channel(s) : 6 channels
Channel positions : Front: L C R, Side: L R, LFE
Sampling rate : 48.0 KHz
Bit depth : 16 bits
Compression mode : Lossy
Stream size : 167 MiB (11%)
Title : MVO KvK - AC3 5.1 48KHz@384kbps
Language : Russian
Default : No
Forced : No

Audio #3
ID : 4
Format : AC-3
Format/Info : Audio Coding 3
Mode extension : CM (complete main)
Format settings, Endianness : Big
Codec ID : A_AC3
Duration : 1h 0mn
Bit rate mode : Constant
Bit rate : 384 Kbps
Channel(s) : 6 channels
Channel positions : Front: L C R, Side: L R, LFE
Sampling rate : 48.0 KHz
Bit depth : 16 bits
Compression mode : Lossy
Stream size : 167 MiB (11%)
Title : DVO BaiBaKo - AC3 5.1 48KHz@384kbps
Language : Russian
Default : No
Forced : No

Audio #4
ID : 5
Format : AC-3
Format/Info : Audio Coding 3
Mode extension : CM (complete main)
Format settings, Endianness : Big
Codec ID : A_AC3
Duration : 1h 0mn
Bit rate mode : Constant
Bit rate : 384 Kbps
Channel(s) : 2 channels
Channel positions : Front: L R
Sampling rate : 48.0 KHz
Bit depth : 16 bits
Compression mode : Lossy
Stream size : 167 MiB (11%)
Title : Original - AC3 2.0 48KHz@384kbps
Language : English
Default : No
Forced : No

Text #1
ID : 6
Format : UTF-8
Codec ID : S_TEXT/UTF8
Codec ID/Info : UTF-8 Plain Text
Language : Russian
Default : No
Forced : No

Text #2
ID : 7
Format : UTF-8
Codec ID : S_TEXT/UTF8
Codec ID/Info : UTF-8 Plain Text
Language : English
Default : No
Forced : No



Скачать Настоящий.детектив.True.Detective.(сезон.02).(Кэри.Фукунага).[2015.драма.криминал.HDTVRip-AVC].2x[MVO.(Novamedia.BaiBaKo)]+[DVO.(Кубик.в.кубе)]+[Eng]+[Sub.Rus].torrent без регистрации
Золото ЗОЛОТАЯ РАЗДАЧА! СКАЧАННОЕ НЕ ЗАСЧИТЫВАЕТСЯ! Золото
Дата: Зарегистрирован   [ Тип: внутренний ] Как тут cкачать?
MAGNET ссылка
MAGNET ссылка


Скачать .torrent

66 KB

Статус: проверено DHT
Скачан: торрент - 419 раз, раздача полностью - 90 раз
Размер: 12,88 GB
Оценка:  3,3 (Голосов: 3)
Поблагодарили: 5
Поделиться ссылкой на эту раздачу с друзьями:
В контактеFacebookОдноклассникиTwitterLivejournalМой МирLiveinternet
 

 
Показать сообщения:    


Вы не можете начинать темы
Вы не можете отвечать на сообщения
Вы не можете редактировать свои сообщения
Вы не можете удалять свои сообщения
Вы не можете голосовать в опросах
Вы не можете прикреплять файлы к сообщениям
Вы можете скачивать файлы