Loading...
Error

Скачать Ответный удар / Strike back (сезор 03) (Дэниэл Персивал) [2012, боевик, триллер, драма, военный, HDTVRip] [MVO (BaibaKo)] торрент без регистрации

 
Статистика раздачи
Размер:  6,27 GB   |    Скачан:  269 раз

Полного источника не было: 20 минут

 
Автор Сообщение

МихаНЕзатор

[] 

Название: Ответный удар
Оригинальное название: Strike back
Год выпуска: 2012
Страна: Великобритания
Жанр: боевик, триллер, драма, военный
Режиссёр: Дэниэл Персивал
В ролях: Рашан Стоун, Филип Уинчестер, Салливан Степлтон, Аманда Милинг, Мишель Лукес, Джими Мистри, Шэйн Тейлор, Эндрю Линкольн, Джоди Мей, Рона Митра и др.

Описание: 3-й сезон британского сериала "Ответный удар" под названием "Отмщение" продолжает повествовать о работе оперативников британской разведки, участвующих в опасных боевых операциях в различных частях мира. В новых сериях идет рассказ о боевиках лояльных Хусейну Ваабри, печально известному сомалийскому командиру, которые напали на эскорт посольства, похитив британского дипломата и младшего атташе. Оперативник 20-го отдела, Дэмиен Скотт, отправляется в Могадишо, чтобы спасти их. Тем временем Майкл Стоунбридж пытается привыкнуть к своей новой жизни вне 20-го отдела.



Перевод: Ray
Озвучка: Татьяна Оболевич, Владимир Курдов и Александр Фурман
Монтаж: Vitall Digitall


Продолжительность: 10 x ~ 00:44:00
Перевод: Профессиональный (многоголосый закадровый) - BaibaKo

Качество: HDTVRip
Формат: AVI
Видео: XviD, ~ 1520 Кбит/с, 720x400
Аудио Rus: MP3, 2 ch, 192 Кбит/с
Аудио Eng: MP3, 2 ch, 192 Кбит/с

Релиз от:

Добавлена 10-ая серия. Сезон полностью.
Формат : AVI
Формат/Информация : Audio Video Interleave
Размер файла : 646 Мбайт
Продолжительность : 47 м.
Общий поток : 1911 Кбит/сек

Видео
Идентификатор : 0
Формат : MPEG-4 Visual
Профиль формата : Advanced Simple@L5
Параметр BVOP формата : 2
Параметр QPel формата : Нет
Параметр GMC формата : Без точки перехода
Параметр матрицы формата : Default (H.263)
Идентификатор кодека : XVID
Идентификатор кодека/Подсказка : XviD
Продолжительность : 47 м.
Битрейт : 1520 Кбит/сек
Ширина : 720 пикс.
Высота : 400 пикс.
Соотношение сторон : 16:9
Частота кадров : 23,976 кадр/сек
Цветовое пространство : YUV
Подвыборка цветности : 4:2:0
Битовая глубина : 8 бит
Тип развёртки : Прогрессивная
Метод сжатия : С потерями
Бит/(Пиксели*Кадры) : 0.220
Размер потока : 514 Мбайт (80%)
Библиотека кодирования : XviD 1.2.1 (UTC 2008-12-04)

Аудио #1
Идентификатор : 1
Формат : MPEG Audio
Версия формата : Version 1
Профиль формата : Layer 3
Режим : Joint stereo
Расширение режима : MS Stereo
Идентификатор кодека : 55
Идентификатор кодека/Подсказка : MP3
Продолжительность : 47 м.
Вид битрейта : Постоянный
Битрейт : 192 Кбит/сек
Каналы : 2 канала
Частота : 48,0 КГц
Метод сжатия : С потерями
Размер потока : 64,9 Мбайт (10%)
Выравнивание : Соединение по промежуткам
Продолжительность промежутка : 167 мс. (4,00 видеокадра)
Время предзагрузки промежутка : 216 ms
Заголовок : Strike.Back.s03e08.HDTVRip.x264.Rus.Eng.BaibaKo.tv.mp4_track_1_russian_audio
Библиотека кодирования : LAME3.99r
Настройки программы : -m j -V 4 -q 2 -lowpass 18.6 -b 192

Аудио #2
Идентификатор : 2
Формат : MPEG Audio
Версия формата : Version 1
Профиль формата : Layer 3
Режим : Joint stereo
Расширение режима : MS Stereo
Идентификатор кодека : 55
Идентификатор кодека/Подсказка : MP3
Продолжительность : 47 м.
Вид битрейта : Постоянный
Битрейт : 192 Кбит/сек
Каналы : 2 канала
Частота : 48,0 КГц
Метод сжатия : С потерями
Размер потока : 64,9 Мбайт (10%)
Выравнивание : Соединение по промежуткам
Продолжительность промежутка : 167 мс. (4,00 видеокадра)
Время предзагрузки промежутка : 216 ms
Заголовок : Strike.Back.s03e08.HDTVRip.x264.Rus.Eng.BaibaKo.tv.mp4_track_2_english_audio
Библиотека кодирования : LAME3.99r
Настройки программы : -m j -V 4 -q 2 -lowpass 18.6 -b 192



Скачать Ответный.удар.Strike.back.(сезор.03).(Дэниэл.Персивал).[2012.боевик.триллер.драма.военный.HDTVRip].[MVO.(BaibaKo)].torrent без регистрации
Золото ЗОЛОТАЯ РАЗДАЧА! СКАЧАННОЕ НЕ ЗАСЧИТЫВАЕТСЯ! Золото
Дата: Зарегистрирован   [ Тип: внутренний ] Как тут cкачать?
MAGNET ссылка
MAGNET ссылка


Скачать .torrent

18 KB

Статус: проверено DHT
Скачан: торрент - 269 раз, раздача полностью - 53 раз
Размер: 6,27 GB
Оценка:  - (Голосов: 0)
Поблагодарили: 2
Поделиться ссылкой на эту раздачу с друзьями:
В контактеFacebookОдноклассникиTwitterLivejournalМой МирLiveinternet
 

 
Показать сообщения:    


Вы не можете начинать темы
Вы не можете отвечать на сообщения
Вы не можете редактировать свои сообщения
Вы не можете удалять свои сообщения
Вы не можете голосовать в опросах
Вы не можете прикреплять файлы к сообщениям
Вы можете скачивать файлы