Loading...
Error

Скачать Игра престолов / Game of Thrones ( Тим Ван Паттен, Алан Тейлор, Брайан Кирк) (сезон 1) [2011, Фэнтези, приключения, HDRip] [Ren.TV] DUB торрент без регистрации

 
Статистика раздачи
Размер:  4,37 GB   |    Скачан:  1060 раз
Сидов:  1  [  0 KB/s  ]  
 
Автор Сообщение

proljot2615

[] 


Игра Престолов / Game of Thrones


Год выпуска: 2011
Выпущено: США
Жанр: Фэнтези, приключения
Продолжительность: ~ 00:55 серия
Сезон: 1
Серия: 1 - 10
Количество серий в сезоне: 10
Перевод: Профессиональный (полное дублирование) (Ren TV)

Режиссер: Тим Ван Паттен, Алан Тейлор, Брайан Кирк

В ролях: Шон Бин, Николай Костер-Вальдау, Лина Хиди, Айэйн Глен, Питер Динклэйдж, Эмилия Кларк, Мишель Фэйрли, Эйден Гиллен, Кит Харингтон, Марк Эдди

Описание: В Вестеросе наступила осень — предвестник долгой зимы, когда Белые ходоки пробудятся ото сна. Но Стена и её защитники позабыты: три короля претендуют на Железный трон и два верховных лорда провозгласили себя королями над своими землями. Никто из них не желает заключить союзы, и каждый считает свое право на трон священным. И воцарился над миром кровавый хаос войны. И началась великая битва, в которой наградою победителю станет Железный Трон Семи Королевств. Страшные настали времена — времена отваги и отмщения, интриги и магии. Ныне дева повстречает безумца, а брат занесет меч на брата. Ныне убитые восстанут — и пойдут тропою Тьмы. Ныне вонзится холодная сталь в холодные сердца. Ныне грядет предначертанная пророчеством битва Королей.







Качество: HDRip
Формат: AVI
Видео кодек: XviD
Аудио кодек: MP3
Видео: 720x400 (1.80:1), 23.976 fps, XviD MPEG-4 ~1058 kbps avg, ~ 0.15 bit/pixel
Аудио: 48 kHz, MPEG Layer 3, 2 ch, ~64.00 kbps avg






01 Зима Близко (Winter is coming).
02 Королевский Тракт (The Kingsroad)
03 Лорд Сноу (Lord Snow).
04 Калеки, бастарды и сломанные вещи (Cripples, Bastards, and Broken Things).
05 Волк и Лев (The Wolf and the Lion).
06 Золотая корона (A Golden Crown).
07 Ты побеждаешь или погибаешь (You Win or You Die).
08 Острый конец (The Pointy End)
09 Бейелор (Baelor).
10 Пламя и кровь (Fire and Blood)





Формат : AVI
Формат/Информация : Audio Video Interleave
Размер файла : 448 Мбайт
Продолжительность : 55 м.
Общий поток : 1132 Кбит/сек
Программа кодирования : VirtualDubMod 1.5.10.2 (build 2540/release)
Библиотека кодирования : VirtualDub build 30091/release

Видео
Идентификатор : 0
Формат : MPEG-4 Visual
Профиль формата : Advanced Simple@L5
Параметр BVOP формата : 2
Параметр QPel формата : Нет
Параметр GMC формата : Без точки перехода
Параметр матрицы формата : Default (H.263)
Режим смешивания : Сжатый битовый поток
Идентификатор кодека : XVID
Идентификатор кодека/Подсказка : XviD
Продолжительность : 55 м.
Битрейт : 1058 Кбит/сек
Ширина : 720 пикс.
Высота : 400 пикс.
Соотношение сторон : 16:9
Частота кадров : 23,976 кадр/сек
Цветовое пространство : YUV
Подвыборка цветности : 4:2:0
Битовая глубина : 8 бит
Тип развёртки : Прогрессивная
Метод сжатия : С потерями
Бит/(Пиксели*Кадры) : 0.153
Размер потока : 418 Мбайт (94%)
Библиотека кодирования : XviD 64

Аудио
Идентификатор : 1
Формат : MPEG Audio
Версия формата : Version 1
Профиль формата : Layer 3
Режим : Joint stereo
Расширение режима : MS Stereo
Идентификатор кодека : 55
Идентификатор кодека/Подсказка : MP3
Продолжительность : 55 м.
Вид битрейта : Постоянный
Битрейт : 64,0 Кбит/сек
Каналы : 2 канала
Частота : 48,0 КГц
Метод сжатия : С потерями
Размер потока : 25,3 Мбайт (6%)
Выравнивание : Разделение по промежуткам
Продолжительность промежутка : 42 мс. (1,00 видеокадр)
Время предзагрузки промежутка : 500 ms






Скачать Игра.престолов.Game.of.Thrones.(.Тим.Ван.Паттен.Алан.Тейлор.Брайан.Кирк).(сезон.1).[2011.Фэнтези.приключения.HDRip].[Ren.TV].DUB.torrent без регистрации
Золото ЗОЛОТАЯ РАЗДАЧА! СКАЧАННОЕ НЕ ЗАСЧИТЫВАЕТСЯ! Золото
Дата: Зарегистрирован   [ Тип: внутренний ] Как тут cкачать?
MAGNET ссылка
MAGNET ссылка


Скачать .torrent

12 KB

Статус: проверено DHT
Скачан: торрент - 1060 раз, раздача полностью - 1601 раз
Размер: 4,37 GB
Оценка:  4,7 (Голосов: 7)
Поблагодарили: 18
Поделиться ссылкой на эту раздачу с друзьями:
В контактеFacebookОдноклассникиTwitterLivejournalМой МирLiveinternet
 

 
Показать сообщения:    


Вы не можете начинать темы
Вы не можете отвечать на сообщения
Вы не можете редактировать свои сообщения
Вы не можете удалять свои сообщения
Вы не можете голосовать в опросах
Вы не можете прикреплять файлы к сообщениям
Вы можете скачивать файлы