Loading...
Error

Скачать Ранние всходы / Молодо-зелено / Хлеб в траве / Le bl™ en herbe (Клод Отан-Лара) [1954, Драма, DVDRip] [VO] торрент без регистрации

 
Статистика раздачи
Размер:  1,46 GB   |    Скачан:  132 раза
Сидов:  1  [  0 KB/s  ]  
 
Автор Сообщение

Marsianka

[] 

Ранние всходы / Молодо-зелено / Хлеб в траве
Le bl™ en herbe

Страна: Франция
Жанр: Драма
Год выпуска: 1954
Продолжительность: 01:44:15
Перевод: Любительский (одноголосый закадровый) acolith
Субтитры: Нет

Режиссёр: Клод Отан-Лара / Claude Autant-Lara
В ролях: Пьер-Мишель Бек, Николь Берже, Эдвидж Фьюлери, Рене Девильер, Шарль Дешан, Элен Тосси, Луи де Фюнес, Роберт Берри, Саймон Духарт

Описание фильма:
16-летний Фил и 15-летняя Винка проводят каникулы на бретонском пляже со своими семьями. Они выросли вместе как брат и сестра. Однажды Фил знакомится с дамой в возрасте, которая решает соблазнить его, ведь возможно это будет её последняя победа. Фил проводит с ней время, а Винка страдает от ревности



Качество: DVDRip
Формат: AVI
Видео: 672x480 (1.40:1), 25 fps, XviD MPEG-4 ~1729 kbps avg, 0.21 bit/pixel
Аудио 1: 48 kHz, MPEG Layer 3, 2 ch, ~128.00 kbps avg [Русский]
Аудио 2: 48 kHz, MPEG Layer 3, 2 ch, ~128.00 kbps avg [Французский]













Format : AVI
Format/Info : Audio Video Interleave
File size : 1.46 GiB
Duration : 1h 44mn
Overall bit rate : 2 001 Kbps
Movie name : Le ble en herbe
Director : Claude Autant-Lara
Writing application : VirtualDubMod 1.5.10.2 (build 2542/release)
Comment : Russian release maggy_lunel ,acolith DVDRip.by.Polinka

Video
ID : 0
Format : MPEG-4 Visual
Format profile : Advanced Simple@L5
Format settings, BVOP : 2
Format settings, QPel : No
Format settings, GMC : No warppoints
Format settings, Matrix : Default (MPEG)
Muxing mode : Packed bitstream
Codec ID : XVID
Codec ID/Hint : XviD
Duration : 1h 44mn
Bit rate : 1 730 Kbps
Width : 672 pixels
Height : 480 pixels
Display aspect ratio : 1.400
Frame rate : 25.000 fps
Color space : YUV
Chroma subsampling : 4:2:0
Bit depth : 8 bits
Scan type : Progressive
Compression mode : Lossy
Bits/(Pixel*Frame) : 0.215
Stream size : 1.26 GiB (86%)
Writing library : XviD 1.1.2 (UTC 2006-11-01)

Audio #1
ID : 1
Format : MPEG Audio
Format version : Version 1
Format profile : Layer 3
Mode : Joint stereo
Mode extension : MS Stereo
Codec ID : 55
Codec ID/Hint : MP3
Duration : 1h 44mn
Bit rate mode : Constant
Bit rate : 128 Kbps
Channel(s) : 2 channels
Sampling rate : 48.0 KHz
Compression mode : Lossy
Stream size : 95.4 MiB (6%)
Alignment : Split accross interleaves
Interleave, duration : 40 ms (1.00 video frame)
Interleave, preload duration : 500 ms

Audio #2
ID : 2
Format : MPEG Audio
Format version : Version 1
Format profile : Layer 3
Mode : Joint stereo
Mode extension : MS Stereo
Codec ID : 55
Codec ID/Hint : MP3
Duration : 1h 44mn
Bit rate mode : Constant
Bit rate : 128 Kbps
Channel(s) : 2 channels
Sampling rate : 48.0 KHz
Compression mode : Lossy
Stream size : 95.4 MiB (6%)
Alignment : Split accross interleaves
Interleave, duration : 40 ms (1.00 video frame)
Interleave, preload duration : 500 ms

Релиз от: _Polinka_



Скачать Ранние.всходы.Молодо-зелено.Хлеб.в.траве.Le.bl™.en.herbe.(Клод.Отан-Лара).[1954.Драма.DVDRip].[VO].torrent без регистрации
Золото ЗОЛОТАЯ РАЗДАЧА! СКАЧАННОЕ НЕ ЗАСЧИТЫВАЕТСЯ! Золото
Дата: Зарегистрирован   [ Тип: внутренний ] Как тут cкачать?
MAGNET ссылка
MAGNET ссылка


Скачать .torrent

15 KB

Статус: проверено DHT
Скачан: торрент - 132 раз, раздача полностью - 8 раз
Размер: 1,46 GB
Оценка:  - (Голосов: 0)
Поблагодарили: 1
Поделиться ссылкой на эту раздачу с друзьями:
В контактеFacebookОдноклассникиTwitterLivejournalМой МирLiveinternet
 

 
Показать сообщения:    


Вы не можете начинать темы
Вы не можете отвечать на сообщения
Вы не можете редактировать свои сообщения
Вы не можете удалять свои сообщения
Вы не можете голосовать в опросах
Вы не можете прикреплять файлы к сообщениям
Вы можете скачивать файлы