Loading...
Error

Скачать Дневники Кэрри / The Carrie Diaries (Полный 1-ый сезон) (Мигель Артета, Норман Баккли) [2013, мелодрама, комедия, WEB-DL] [720p] [DVO] (ПРИЧУДИКИ) торрент без регистрации

 
Статистика раздачи
Размер:  20,41 GB   |    Скачан:  223 раза
Сидов:  1  [  0 KB/s  ]  
 
Автор Сообщение

leon030982

[] 

Дневники Кэрри / The Carrie Diaries


Год выпуска: 2013
Страна: США | The CW
Жанр: Мелодрама, комедия
Продолжительность: 13x~ 00:44:00
Перевод: Любительский (двухголосый закадровый) [ПРИЧУДИКИ]
Субтитры: Нет

Режиссёры: Мигель Артета, Норман Баккли
В ролях: Анна-София Робб, Адриана ДеМео, Кейт Ноулин, Александра Миллер, Уитни Вэнс, Фрима Аджйеман и др.
Описание: Кэрри Брэдшоу учится в выпускном классе средней школы в начале 1980-х годов. Она сталкивается с первыми вопросами о любви, сексе, дружбе и семье во время учебы в школе и жизни на Манхэттене.

Sample - http://multi-up.com/820973
Качество: WEB-DL 720p
Формат: MKV
Видео кодек: AVC
Аудио кодек: AC3
Видео: 1280x720 (16/9), 23.976 fps, 4310 Kbps (0.177 bit/pixel)
Аудио Rus: 48.0 KHz, 6 ch, 384 Kbps |Любительский (двухголосый закадровый) ПРИЧУДИКИ|
Аудио Eng: 48.0 KHz, 6 ch, 384 Kbps |Original|
ImDB / Кинопоиск
[b]General
Unique ID : 239149519072699577596195361308124797184 (0xB3EA85A194ED9C8FB0EF85F134125900)
Complete name : C:\NewOut\Дневники Кэрри_The Carrie Diaries Season 1\The.Carrie.Diaries.S01E01.Pilot.720p.WEB-DL.DD5.1.H.264-KiNGS.mkv
Format : Matroska
File size : 1.31 GiB
Duration : 42mn 37s
Overall bit rate : 4 397 Kbps
Movie name : The.Carrie.Diaries.S01E01.720p.WEB.DL.DD5.1.H.264.KiNGS.mkv 7718
Encoded date : UTC 2013-01-17 14:04:53
Writing application : mkvmerge v5.8.0 ('No Sleep / Pillow') built on Sep 2 2012 15:37:04
Writing library : libebml v1.2.3 + libmatroska v1.3.0

Video
ID : 1
Format : AVC
Format/Info : Advanced Video Codec
Format profile : High@L3.1
Format settings, CABAC : No
Format settings, ReFrames : 2 frames
Format settings, GOP : M=2, N=20
Codec ID : V_MPEG4/ISO/AVC
Duration : 42mn 37s
Bit rate : 3 925 Kbps
Width : 1 280 pixels
Height : 720 pixels
Display aspect ratio : 16:9
Frame rate : 23.976 fps
Color space : YUV
Chroma subsampling : 4:2:0
Bit depth : 8 bits
Scan type : Progressive
Bits/(Pixel*Frame) : 0.178
Stream size : 1.17 GiB (89%)
Language : English
Color primaries : BT.709-5, BT.1361, IEC 61966-2-4, SMPTE RP177
Transfer characteristics : BT.709-5, BT.1361
Matrix coefficients : BT.709-5, BT.1361, IEC 61966-2-4 709, SMPTE RP177

Audio
ID : 2
Format : AC-3
Format/Info : Audio Coding 3
Mode extension : CM (complete main)
Codec ID : A_AC3
Duration : 42mn 37s
Bit rate mode : Constant
Bit rate : 384 Kbps
Channel(s) : 6 channels
Channel positions : Front: L C R, Side: L R, LFE
Sampling rate : 48.0 KHz
Bit depth : 16 bits
Compression mode : Lossy
Stream size : 117 MiB (9%)
Language : English

Text #1
ID : 3
Format : UTF-8
Codec ID : S_TEXT/UTF8
Codec ID/Info : UTF-8 Plain Text
Title : Notabenoid
Language : Russian

Text #2
ID : 4
Format : UTF-8
Codec ID : S_TEXT/UTF8
Codec ID/Info : UTF-8 Plain Text
Title : Original
Language : English
Внимание! Раздача ведётся путём добавления новых серий; при каждом добавлении создётся новый торрент. Чтобы начать докачку новой серии, пользователям необходимо сделать следующее:Остановить скачивание.
Удалить старый торрент у себя из клиента (старые серии удалять не надо).
Скачать новый торрент и запустить его у себя в клиенте вместо старого, при этом указать клиенту путь в старую папку куда и должно происходить скачивание новых серий.[size=11]Ваш клиент при этом должен произвести хеширование (проверку) старой папки (если не производит сам - помогите ему сделать это), и будет докачивать только те серии которых у вас ещё нет. Старые серии при этом не удаляются, а продолжают раздаваться!
Eсли вы уже удалили старые серии, то предотвратить повторную закачку старых серий можно, отжав галочку в соответсвующих местах при запуске нового торрента. По возможности, желательно не удалять старые серии как можно дольше чтобы релизёр не столько продолжал раздавать старые серии, а смог сконцентрироваться на новых. [align=center]



Скачать Дневники.Кэрри.The.Carrie.Diaries.(Полный.1-ый.сезон).(Мигель.Артета.Норман.Баккли).[2013.мелодрама.комедия.WEB-DL].[720p].[DVO].(ПРИЧУДИКИ).torrent без регистрации
Золото ЗОЛОТАЯ РАЗДАЧА! СКАЧАННОЕ НЕ ЗАСЧИТЫВАЕТСЯ! Золото
Дата: Зарегистрирован   [ Тип: внутренний ] Как тут cкачать?
MAGNET ссылка
MAGNET ссылка


Скачать .torrent

52 KB

Статус: проверено DHT
Скачан: торрент - 223 раз, раздача полностью - 44 раз
Размер: 20,41 GB
Оценка:  - (Голосов: 0)
Поблагодарили: 0
Поделиться ссылкой на эту раздачу с друзьями:
В контактеFacebookОдноклассникиTwitterLivejournalМой МирLiveinternet
 

 

leon030982

[] 

добавлена 6-я серия az
 

leon030982

[] 

добавлена 7- я серия az
 

leon030982

[] 

добавлены 9-10 серии az
 

leon030982

[] 

сезон завершен az ay
 
Показать сообщения:    


Вы не можете начинать темы
Вы не можете отвечать на сообщения
Вы не можете редактировать свои сообщения
Вы не можете удалять свои сообщения
Вы не можете голосовать в опросах
Вы не можете прикреплять файлы к сообщениям
Вы можете скачивать файлы