Loading...
Error

Скачать Танго и Кэш / Тango & Cash (Aндрей Кончаловский) [1989, комедийный боевик, HDRip-AVC] [DUB] торрент без регистрации

 
Статистика раздачи
Размер:  2,18 GB   |    Скачан:  133 раза
Сидов:  1  [  0 KB/s  ]  
 
Автор Сообщение

leon030982

[] 

Танго и Кэш

Год выпуска: 1989
Страна: США
Студия: Guber-Peters Company, Warner Bros. Pictures
Жанр: Комедийный боевик
Продолжительность: 01:43:46
Перевод: Профессиональный (дублированный) Перевод студии "Мосфильм"
Субтитры: нет
Оригинальная аудиодорожка: нет
Режиссер: Андрей Кончаловский /Andrei Konchalovsky
В ролях: Сильвестр Сталлоне, Курт Рассел, Тери Хэтчер, Джек Пэланс, Брайон Джеймс, Джеймс Хонг, Марк Алаймо, Филип Тан, Майкл Дж. Поллард, Роберт З’Дар..
Описание: Рэй Танго и Гэйб Кэш — двое полицейских из отдела по борьбе с наркотиками Лос-Анджелеса. Они работают в разных участках и, по натуре наделённые совершенно разными характерами, постоянно соперничают друг с другом. Они оба охотятся за крупным международным преступником Ивом Перре и в связи с этим волей-неволей становятся напарниками. Перре смертельно надоела эта парочка и он подставляет их, подбросив труп и подстроив им причастность к убийству. Танго и Кэш арестованы. Для того, чтобы остановить Перре и восстановить своё доброе имя, они вынуждены организовать побег из тюрьмы…

Исходник: BDRip 1080p - Tango.&.Cash.1989.BDRip.1080p.mkv
Тип релиза: HDRip-AVC
Контейнер: MKV
Видео: 1024x576 (16:9), 23,976 fps, H264 ~ 2559 kbps avg, 0.181 bit/pixel
Аудио: 48 kHz, AC3 2 ch, 448.00 kbps Constant Русский
Общее
Полное имя : Tango.i.Kjesh.1989.HDRip-AVC.mkv
Формат : Matroska
Версия формата : Version 2
Размер файла : 2,18 Гбайт
Продолжительность : 1 ч. 43 м.
Общий поток : 3008 Кбит/сек
Название фильма : Tango.i.Kjesh.1989.HDRip-AVC
Дата кодирования : UTC 2011-11-03 08:38:45
Программа кодирования : mkvmerge v5.0.1 ('Es ist Sommer') built on Oct 9 2011 11:55:43
Библиотека кодирования : libebml v1.2.2 + libmatroska v1.3.0
Видео
Идентификатор : 1
Формат : AVC
Формат/Информация : Advanced Video Codec
Профиль формата : High@L4.1
Параметр CABAC формата : Да
Параметр ReFrames формата : 8 кадров
Идентификатор кодека : V_MPEG4/ISO/AVC
Продолжительность : 1 ч. 43 м.
Битрейт : 2559 Кбит/сек
Ширина : 1024 пикселя
Высота : 576 пикселей
Соотношение сторон : 16:9
Частота кадров : 23,976 кадра/сек
Цветовое пространство : YUV
Субдискретизация насыщенности : 4:2:0
Битовая глубина : 8 бит
Тип развёртки : Прогрессивная
Бит/(Пиксели*Кадры) : 0.181
Размер потока : 1,81 Гбайт (83%)
Заголовок : Источник BDRip-AVC 1080p
Библиотека кодирования : x264 core 114 r1913 5fd3dce
Настройки программы : cabac=1 / ref=8 / deblock=1:-2:-1 / analyse=0x3:0x113 / me=umh / subme=9 / psy=1 / psy_rd=1.00:0.10 / mixed_ref=1 / me_range=32 / chroma_me=1 / trellis=1 / 8x8dct=1 / cqm=0 / deadzone=21,11 / fast_pskip=1 / chroma_qp_offset=-3 / threads=3 / sliced_threads=0 / nr=0 / decimate=1 / interlaced=0 / constrained_intra=0 / bframes=8 / b_pyramid=2 / b_adapt=1 / b_bias=0 / direct=3 / weightb=1 / open_gop=0 / weightp=0 / keyint=250 / keyint_min=23 / scenecut=40 / intra_refresh=0 / rc_lookahead=60 / rc=2pass / mbtree=1 / bitrate=2559 / ratetol=1.0 / qcomp=0.60 / qpmin=0 / qpmax=69 / qpstep=4 / cplxblur=20.0 / qblur=0.5 / ip_ratio=1.40 / aq=1:1.00
Язык : English
Аудио
Идентификатор : 2
Формат : AC-3
Формат/Информация : Audio Coding 3
Профиль формата : Dolby Digital
Расширение режима : CM (complete main)
Идентификатор кодека : A_AC3
Продолжительность : 1 ч. 43 м.
Вид битрейта : Постоянный
Битрейт : 448 Кбит/сек
Каналы : 2 канала
Расположение каналов : Front: L R
Частота : 48,0 КГц
Битовая глубина : 16 бит
Метод сжатия : С потерями
Размер потока : 332 Мбайт (15%)
Заголовок : Источник BDRip-AVC 1080p
Язык : Russian
Меню
00:00:00.000 : ru:00:00:00.000000000
00:05:00.000 : :00:05:00.000000000
00:10:00.000 : :00:10:00.000000000
00:15:00.000 : :00:15:00.000000000
00:20:00.000 : :00:20:00.000000000
00:25:00.000 : :00:25:00.000000000
00:30:00.000 : :00:30:00.000000000
00:35:00.000 : :00:35:00.000000000
00:40:00.000 : :00:40:00.000000000
00:45:00.000 : :00:45:00.000000000
00:50:00.000 : :00:50:00.000000000
00:55:00.000 : :00:55:00.000000000
01:00:00.000 : :01:00:00.000000000
01:05:00.000 : :01:05:00.000000000
01:10:00.000 : :01:10:00.000000000
01:15:00.000 : :01:15:00.000000000
01:20:00.000 : :01:20:00.000000000
01:25:00.000 : :01:25:00.000000000
01:30:00.000 : :01:30:00.000000000
01:35:00.000 : :01:35:00.000000000
01:40:00.000 : :01:40:00.000000000



Скачать Танго.и.Кэш.Тango.&.Cash.(Aндрей.Кончаловский).[1989.комедийный.боевик.HDRip-AVC].[DUB].torrent без регистрации
Золото ЗОЛОТАЯ РАЗДАЧА! СКАЧАННОЕ НЕ ЗАСЧИТЫВАЕТСЯ! Золото
Дата: Зарегистрирован   [ Тип: внутренний ] Как тут cкачать?
MAGNET ссылка
MAGNET ссылка


Скачать .torrent

11 KB

Статус: проверено DHT
Скачан: торрент - 133 раз, раздача полностью - 4 раз
Размер: 2,18 GB
Оценка:  - (Голосов: 0)
Поблагодарили: 1
Поделиться ссылкой на эту раздачу с друзьями:
В контактеFacebookОдноклассникиTwitterLivejournalМой МирLiveinternet
 

 
Показать сообщения:    


Вы не можете начинать темы
Вы не можете отвечать на сообщения
Вы не можете редактировать свои сообщения
Вы не можете удалять свои сообщения
Вы не можете голосовать в опросах
Вы не можете прикреплять файлы к сообщениям
Вы можете скачивать файлы