Loading...
Error

Скачать Танго и Кэш / Тango & Cash (Aндрей Кончаловский) [1989, Комедийный боевик, HDRip] [DUB] торрент без регистрации

 
Статистика раздачи
Размер:  750 MB   |    Скачан:  131 раз
Сидов:  1  [  0 KB/s  ]  
 
Автор Сообщение

leon030982

[] 

Танго и Кэш
Год выпуска: 1989
Страна: США
Студия: Guber-Peters Company, Warner Bros. Pictures
Жанр: Комедийный боевик
Продолжительность: 01:43:46
Перевод: Профессиональный (дублированный) Перевод студии "Мосфильм"
Субтитры: нет
Оригинальная аудиодорожка: нет
Режиссер: Андрей Кончаловский /Andrei Konchalovsky
В ролях: Сильвестр Сталлоне, Курт Рассел, Тери Хэтчер, Джек Пэланс, Брайон Джеймс, Джеймс Хонг, Марк Алаймо, Филип Тан, Майкл Дж. Поллард, Роберт З’Дар..
Описание: Рэй Танго и Гэйб Кэш — двое полицейских из отдела по борьбе с наркотиками Лос-Анджелеса. Они работают в разных участках и, по натуре наделённые совершенно разными характерами, постоянно соперничают друг с другом. Они оба охотятся за крупным международным преступником Ивом Перре и в связи с этим волей-неволей становятся напарниками. Перре смертельно надоела эта парочка и он подставляет их, подбросив труп и подстроив им причастность к убийству. Танго и Кэш арестованы. Для того, чтобы остановить Перре и восстановить своё доброе имя, они вынуждены организовать побег из тюрьмы…

Исходник: BDRip 1080p - Tango.&.Cash.1989.BDRip.1080p.mkv
Тип релиза: HDRip
Контейнер: AVI
Видео: 656x368 (16:9), 25 fps, XviD MPEG-4 ~ 873 kbps avg, 0.151 bit/pixel
Аудио: 48 kHz, MP3, 2 ch, 128.00 kbps, Русский
Общее
Полное имя : Tango.i.Kjesh.1989.HDRip.745MB.avi
Формат : AVI
Формат/Информация : Audio Video Interleave
Размер файла : 750 Мбайт
Продолжительность : 1 ч. 43 м.
Общий поток : 1010 Кбит/сек
Программа кодирования : VirtualDubMod 1.5.10.3 | www.virtualdub-fr.org || (build 2550/release)
Библиотека кодирования : VirtualDubMod build 2550/release
Видео
Идентификатор : 0
Формат : MPEG-4 Visual
Профиль формата : Advanced Simple@L5
Параметр BVOP формата : 1
Параметр QPel формата : Нет
Параметр GMC формата : Без точки перехода
Параметр матрицы формата : Выборочная
Идентификатор кодека : XVID
Идентификатор кодека/Подсказка : XviD
Продолжительность : 1 ч. 43 м.
Битрейт : 873 Кбит/сек
Ширина : 656 пикселей
Высота : 368 пикселей
Соотношение сторон : 16:9
Частота кадров : 23,976 кадра/сек
Цветовое пространство : YUV
Субдискретизация насыщенности : 4:2:0
Битовая глубина : 8 бит
Тип развёртки : Прогрессивная
Метод сжатия : С потерями
Бит/(Пиксели*Кадры) : 0.151
Размер потока : 648 Мбайт (86%)
Библиотека кодирования : XviD 1.2.1 (UTC 2008-12-04)
Аудио
Идентификатор : 1
Формат : MPEG Audio
Версия формата : Version 1
Профиль формата : Layer 3
Идентификатор кодека : 55
Идентификатор кодека/Подсказка : MP3
Продолжительность : 1 ч. 43 м.
Вид битрейта : Постоянный
Битрейт : 128 Кбит/сек
Каналы : 2 канала
Частота : 48,0 КГц
Метод сжатия : С потерями
Размер потока : 95,0 Мбайт (13%)
Выравнивание : Соединение по промежуткам
Продолжительность промежутка : 42 мс. (1,00 видеокадр)
Время предзагрузки промежутка : 504 мс.
Библиотека кодирования : LAME3.98r



Скачать Танго.и.Кэш.Тango.&.Cash.(Aндрей.Кончаловский).[1989.Комедийный.боевик.HDRip].[DUB].torrent без регистрации
Золото ЗОЛОТАЯ РАЗДАЧА! СКАЧАННОЕ НЕ ЗАСЧИТЫВАЕТСЯ! Золото
Дата: Зарегистрирован   [ Тип: внутренний ] Как тут cкачать?
MAGNET ссылка
MAGNET ссылка


Скачать .torrent

15 KB

Статус: проверено DHT
Скачан: торрент - 131 раз, раздача полностью - 15 раз
Размер: 750 MB
Оценка:  5 (Голосов: 1)
Поблагодарили: 3
Поделиться ссылкой на эту раздачу с друзьями:
В контактеFacebookОдноклассникиTwitterLivejournalМой МирLiveinternet
 

 
Показать сообщения:    


Вы не можете начинать темы
Вы не можете отвечать на сообщения
Вы не можете редактировать свои сообщения
Вы не можете удалять свои сообщения
Вы не можете голосовать в опросах
Вы не можете прикреплять файлы к сообщениям
Вы можете скачивать файлы