Loading...
Error

Скачать Танго и Кэш / Tango & Cash (Андрей Кончаловский) [1989, комедийный боевик, HDRip] [DUB] торрент без регистрации

 
Статистика раздачи
Размер:  1,46 GB   |    Скачан:  147 раз
Сидов:  1  [  0 KB/s  ]  
 
Автор Сообщение

leon030982

[] 

Танго и Кэш / Tango & Cash
Страна: США
Жанр: Комедийный боевик
Год выпуска: 1989
Продолжительность: 01:43:46

Перевод: Профессиональный (дублированный) - студия "Мосфильм"
Cубтитры: нет

Режиссер: Андрей Кончаловский /Andrei Konchalovsky
В ролях: Сильвестр Сталлоне, Курт Рассел, Тери Хэтчер, Джек Пэланс, Брайон Джеймс, Джеймс Хонг, Марк Алаймо, Филип Тан, Майкл Дж. Поллард, Роберт З’Дар

Описание: Рэй Танго и Гэйб Кэш — двое полицейских из отдела по борьбе с наркотиками Лос-Анджелеса. Они работают в разных участках и, по натуре наделённые совершенно разными характерами, постоянно соперничают друг с другом. Они оба охотятся за крупным международным преступником Ивом Перре и в связи с этим волей-неволей становятся напарниками.
Перре смертельно надоела эта парочка и он подставляет их, подбросив труп и подстроив им причастность к убийству. Танго и Кэш арестованы. Для того, чтобы остановить Перре и восстановить своё доброе имя, они вынуждены организовать побег из тюрьмы…



Качество видео: НDRip
Формат видео: AVI
Видео: XviD, 720х304, 2,35:1, 23,976 fps, 1617 kbps
Аудио: AC3, 48 kHz, 384 kbps, Front: L C R, Side: L R, LFE, дубляж
Общее
Формат : AVI
Формат/Информация : Audio Video Interleave
Размер файла : 1,46 Гбайт
Продолжительность : 1 ч. 43 м.
Общий поток : 2010 Кбит/сек
Название фильма : Танго и Кэш / Tango & Cash (1989)
Программа кодирования : VirtualDubModRus 1.5.10.2 (build 2542/release)
Правообладатель : HQ-ViDEO
Примечание : 09.04.2009
Видео
Идентификатор : 0
Формат : MPEG-4 Visual
Профиль формата : Advanced Simple@L5
Параметр BVOP формата : 2
Параметр QPel формата : Нет
Параметр GMC формата : Без точки перехода
Параметр матрицы формата : Default (MPEG)
Режим смешивания : Сжатый битовый поток
Идентификатор кодека : XVID
Идентификатор кодека/Подсказка : XviD
Продолжительность : 1 ч. 43 м.
Битрейт : 1617 Кбит/сек
Ширина : 720 пикс.
Высота : 304 пикс.
Соотношение сторон : 2,35:1
Частота кадров : 23,976 кадр/сек
Цветовое пространство : YUV
Подвыборка цветности : 4:2:0
Битовая глубина : 8 бит
Тип развёртки : Прогрессивная
Метод сжатия : С потерями
Бит/(Пиксели*Кадры) : 0.308
Размер потока : 1,17 Гбайт (80%)
Библиотека кодирования : XviD 1.2.1 (UTC 2008-12-04)
Аудио
Идентификатор : 1
Формат : AC-3
Формат/Информация : Audio Coding 3
Расширение режима : CM (complete main)
Идентификатор кодека : 2000
Продолжительность : 1 ч. 43 м.
Вид битрейта : Постоянный
Битрейт : 384 Кбит/сек
Каналы : 6 каналов
Расположение каналов : Front: L C R, Side: L R, LFE
Частота : 48,0 КГц
Битовая глубина : 16 бит
Метод сжатия : С потерями
Размер потока : 285 Мбайт (19%)
Выравнивание : Разделение по промежуткам
Продолжительность промежутка : 42 мс. (1,00 видеокадр)
Время предзагрузки промежутка : 500 ms



Скачать Танго.и.Кэш.Tango.&.Cash.(Андрей.Кончаловский).[1989.комедийный.боевик.HDRip].[DUB].torrent без регистрации
Золото ЗОЛОТАЯ РАЗДАЧА! СКАЧАННОЕ НЕ ЗАСЧИТЫВАЕТСЯ! Золото
Дата: Зарегистрирован   [ Тип: внутренний ] Как тут cкачать?
MAGNET ссылка
MAGNET ссылка


Скачать .torrent

15 KB

Статус: проверено DHT
Скачан: торрент - 147 раз, раздача полностью - 31 раз
Размер: 1,46 GB
Оценка:  5 (Голосов: 1)
Поблагодарили: 2
Поделиться ссылкой на эту раздачу с друзьями:
В контактеFacebookОдноклассникиTwitterLivejournalМой МирLiveinternet
 

 
Показать сообщения:    


Вы не можете начинать темы
Вы не можете отвечать на сообщения
Вы не можете редактировать свои сообщения
Вы не можете удалять свои сообщения
Вы не можете голосовать в опросах
Вы не можете прикреплять файлы к сообщениям
Вы можете скачивать файлы