Loading...
Error

Скачать Связь / Touch (Сезон 1 полный) (Френсис Лоуренс)[2012 г., драма, WEB-DLRip] [LostFilm] торрент без регистрации

 
Статистика раздачи
Размер:  6,35 GB   |    Скачан:  259 раз
Сидов:  1  [  0 KB/s  ]  
 
Автор Сообщение

leon030982

[] 



Контакт/Связь/
Touch


Год выпуска: 2012
Страна: США
Жанр: драма
Продолжительность: ~ 45 минут
Перевод: Профессиональный (многоголосый, закадровый) - LostFilm
Субтитры: Нет
Режиссёр: Френсис Лоуренс
В ролях: Кифер Сазерленд, Карен Шенас-Дэвид, Девид де Латур, Масси Фурлан, Дэнни Гловер и др.
Описание: Он потерял любимую жену, и остался один воспитывать своего сына - аутиста. Все свое время он тратит на то, чтобы понять особое мышление своего сына и наладить с ним контакт, но до сих пор его попытки не приносили должного успеха, его ребенок оставался таким же молчаливым и замкнутым. Но в один момент Мартин понимает что его сын обладает особым даром гения - он предвидит события будущего, точки в которых действия одного человека могут подействовать на жизни других. Но выражает он свои видения в цифрах, расшифровать которые и предстоит его отцу, помешав тем самым случиться трагедии.
Качество: WEB-DLRip
Формат: AVI
Видео кодек: XviD
Аудио кодек: MP3
Видео: 720x400 (16:9), 23.976 fps, ~1600 kbps, ~0.235 bit/pixel
Аудио Rus: 48 kHz, 2 ch, ~128 kbps |LostFilm|

Озвучка: Студия "LostFilm"



28.09.2012 г., торент обновлён, добавлена финальная(бонусная) 13-я серия!
Общее
Полное имя : F:\Touch.S01.rus.LostFilm\Touch.S01E01.rus.LostFilm.TV.avi
Формат : AVI
Формат/Информация : Audio Video Interleave
Размер файла : 638 Мбайт
Продолжительность : 50 м.
Общий поток : 1769 Кбит/сек
Программа кодирования : Nandub v1.0rc2
Библиотека кодирования : Nandub build 1853/release
Видео
Идентификатор : 0
Формат : MPEG-4 Visual
Профиль формата : Simple@L3
Параметр BVOP формата : Нет
Параметр QPel формата : Нет
Параметр GMC формата : Без точки перехода
Параметр матрицы формата : Default (H.263)
Идентификатор кодека : XVID
Идентификатор кодека/Подсказка : XviD
Продолжительность : 50 м.
Битрейт : 1629 Кбит/сек
Ширина : 720 пикс.
Высота : 400 пикс.
Соотношение сторон : 16:9
Частота кадров : 23,976 кадр/сек
Цветовое пространство : YUV
Подвыборка цветности : 4:2:0
Битовая глубина : 8 бит
Тип развёртки : Прогрессивная
Метод сжатия : С потерями
Бит/(Пиксели*Кадры) : 0.236
Размер потока : 587 Мбайт (92%)
Библиотека кодирования : XviD 1.2.1 (UTC 2008-12-04)
Аудио
Идентификатор : 1
Формат : MPEG Audio
Версия формата : Version 1
Профиль формата : Layer 3
Режим : Joint stereo
Расширение режима : MS Stereo
Идентификатор кодека : 55
Идентификатор кодека/Подсказка : MP3
Продолжительность : 50 м.
Вид битрейта : Постоянный
Битрейт : 128 Кбит/сек
Каналы : 2 канала
Частота : 48,0 КГц
Метод сжатия : С потерями
Размер потока : 46,1 Мбайт (7%)
Выравнивание : Соединение по промежуткам
Продолжительность промежутка : 24 мс. (0,58 видеокадр)
Время предзагрузки промежутка : 480 ms



Скачать Связь.Touch.(Сезон.1.полный).(Френсис.Лоуренс)[2012.г.драма.WEB-DLRip].[LostFilm].torrent без регистрации
Золото ЗОЛОТАЯ РАЗДАЧА! СКАЧАННОЕ НЕ ЗАСЧИТЫВАЕТСЯ! Золото
Дата: Зарегистрирован   [ Тип: внутренний ] Как тут cкачать?
MAGNET ссылка
MAGNET ссылка


Скачать .torrent

35 KB

Статус: проверено DHT
Скачан: торрент - 259 раз, раздача полностью - 173 раз
Размер: 6,35 GB
Оценка:  5 (Голосов: 2)
Поблагодарили: 7
Поделиться ссылкой на эту раздачу с друзьями:
В контактеFacebookОдноклассникиTwitterLivejournalМой МирLiveinternet
 

 
Показать сообщения:    


Вы не можете начинать темы
Вы не можете отвечать на сообщения
Вы не можете редактировать свои сообщения
Вы не можете удалять свои сообщения
Вы не можете голосовать в опросах
Вы не можете прикреплять файлы к сообщениям
Вы можете скачивать файлы