Loading...
Error

Скачать Джеймс Бонд 007: Золотой глаз / James Bond 007: Golden Eye (Мартин Кэмпбелл) [1995, боевик, триллер, приключения, HDTVRip] [DUB] торрент без регистрации

 
Статистика раздачи
Размер:  1,45 GB   |    Скачан:  196 раз

Полного источника не было: 9 месяцев

 
Автор Сообщение

leon030982

[] 

Джеймс Бонд 007: Золотой глаз / James Bond 007: GoldenEye
Страна: США, Великобритания
Жанр: боевик, триллер, приключения
Год выпуска: 1995
Продолжительность: 2:09:49
Перевод: Профессиональный (дублированный)
Cубтитры: нет
Режиссер: Мартин Кэмпбелл / Martin Campbell
В ролях: Пирс Броснан, Шон Бин, Изабелла Скорупко, Фамке Янссен, Джо Дон Бейкер, Джуди Денч, Готтфрид Джон, Робби Колтрейн, Алан Камминг, Чеки Карио
Описание: Джеймс Бонд отправляется в Россию на поиски террористов захвативших управление новым секретным оружейным комплексом «Золотой глаз». Разработанное для уничтожения любого компьютерного оборудования, в руках негодяев это оружие превращается в мощнейший инструмент давления на правительства экономически развитых государств.
Во время этой чрезвычайно опасной миссии Бонду приходится полетать на вертолете-невидимке, взорвать бронепоезд, совершить увлекательную поездку на танке по Санкт-Петербургу и конечно соблазнить парочку длинноногих красоток.

Сэмпл: http://multi-up.com/642333
Качество видео: HDTVRip (Source: HDTVRip 720p)
Формат видео: AVI
Видео: 720x304 (2.37:1), 23.976 fps, XviD build 50 ~1402 kbps avg, 0.27 bit/pixel
Аудио: 48 kHz, AC3 Dolby Digital, 2/0 (L,R) ch, ~192 kbps / Dub
General
Complete name : C:\Users\Sirius\Downloads\Golden.Eye.1995.HDTVRip.avi
Format : AVI
Format/Info : Audio Video Interleave
File size : 1.45 GiB
Duration : 2h 9mn
Overall bit rate : 1 604 Kbps
Movie name : Golden.Eye.1995.HDTVRip
Director : St-ig ©
Writing application : VirtualDubMod 1.5.10.2 (build 2540/release)
Video
ID : 0
Format : MPEG-4 Visual
Format profile : Advanced Simple@L5
Format settings, BVOP : 1
Format settings, QPel : No
Format settings, GMC : No warppoints
Format settings, Matrix : Custom
Codec ID : XVID
Codec ID/Hint : XviD
Duration : 2h 9mn
Bit rate : 1 403 Kbps
Width : 720 pixels
Height : 304 pixels
Display aspect ratio : 2.35:1
Frame rate : 23.976 fps
Color space : YUV
Chroma subsampling : 4:2:0
Bit depth : 8 bits
Scan type : Progressive
Compression mode : Lossy
Bits/(Pixel*Frame) : 0.267
Stream size : 1.27 GiB (87%)
Writing library : XviD 1.2.1 (UTC 2008-12-04)
Audio
ID : 1
Format : AC-3
Format/Info : Audio Coding 3
Mode extension : CM (complete main)
Codec ID : 2000
Duration : 2h 9mn
Bit rate mode : Constant
Bit rate : 192 Kbps
Channel(s) : 2 channels
Channel positions : Front: L R
Sampling rate : 48.0 KHz
Bit depth : 16 bits
Compression mode : Lossy
Stream size : 178 MiB (12%)
Alignment : Split accross interleaves
Interleave, duration : 42 ms (1.00 video frame)
Interleave, preload duration : 500 ms



Скачать Джеймс.Бонд.007.Золотой.глаз.James.Bond.007.Golden.Eye.(Мартин.Кэмпбелл).[1995.боевик.триллер.приключения.HDTVRip].[DUB].torrent без регистрации
Золото ЗОЛОТАЯ РАЗДАЧА! СКАЧАННОЕ НЕ ЗАСЧИТЫВАЕТСЯ! Золото
Дата: Зарегистрирован   [ Тип: внутренний ] Как тут cкачать?
MAGNET ссылка
MAGNET ссылка


Скачать .torrent

15 KB

Статус: проверено
Скачан: торрент - 196 раз, раздача полностью - 101 раз
Размер: 1,45 GB
Оценка:  - (Голосов: 0)
Поблагодарили: 4
Поделиться ссылкой на эту раздачу с друзьями:
В контактеFacebookОдноклассникиTwitterLivejournalМой МирLiveinternet
 

 
Показать сообщения:    


Вы не можете начинать темы
Вы не можете отвечать на сообщения
Вы не можете редактировать свои сообщения
Вы не можете удалять свои сообщения
Вы не можете голосовать в опросах
Вы не можете прикреплять файлы к сообщениям
Вы можете скачивать файлы