Loading...
Error

Скачать Коматозники / Flatliners (Джоэл Шумахер) [1990, ужасы, фантастика, триллер, драма, BDRip] [Dub] торрент без регистрации

 
Статистика раздачи
Размер:  1,45 GB   |    Скачан:  167 раз
Сидов:  1  [  0 KB/s  ]  
 
Автор Сообщение

Marsianka

[] 

Коматозники / Flatliners (1990) BDRip от PowerTracker

Жанр: ужасы, фантастика, триллер, драма
Страна: США
Режиссер: Джоэл Шумахер
В ролях: Кифер Сазерленд, Джулия Робертс, Кевин Бейкон, Уильям Болдуин, Оливер Плэтт, Кимберли Скотт, Джошуа Рудой, Бенжамин Мутон, Аерик Иган, Кеша Рид

Сюжет фильма: Достаточно сделать всего один шаг, чтобы перейти хрупкую грань между жизнью и смертью. Группа студентов-медиков выбрала для своих исследований запретную и опасную область. Будущие врачи решили проникнуть в тайну небытия, которое наступает после остановки сердца. Один за другим студенты погружаются в состояние клинической смерти, отправляясь в непредсказуемое путешествие по ту сторону жизни. Результаты исследований оказались настолько неожиданными, что побывавший ТАМ уже не может продолжать прежний образ жизни, даже если бы и хотел.

Мировая премьера: 10 августа 1990



Продолжительность: 01:54:13
Качество видео: BDRip
Видео: кодек: XviD, размер кадра: 720x304, битрейт: 1426 кб/с, bit/pixel: 0.272
Аудио: язык: Русский , перевод: дублированный (дубляж), кодек: AC3 5.1, битрейт: 384.00 кб/с

&
Общее
Полное имя : D:РоздачиFlatliners.1990.HQBDRip.PT.avi
Формат : AVI
Формат/Информация : Audio Video Interleave
Размер файла : 1,45 Гбайт
Продолжительность : 1 ч. 54 м.
Общий поток : 1819 Кбит/сек
Режиссёр : rulya74 [720p]
Программа кодирования : VirtualDubModRus 1.5.10.2 (build 2542/release)
Библиотека кодирования : VirtualDubMod build 2542/release
Правообладатель : www.PowerTracker.org

Видео
Идентификатор : 0
Формат : MPEG-4 Visual
Профиль формата : Advanced Simple@L5
Параметр BVOP формата : 2
Параметр QPel формата : Нет
Параметр GMC формата : Без точки перехода
Параметр матрицы формата : Default (H.263)
Режим смешивания : Сжатый битовый поток
Идентификатор кодека : XVID
Идентификатор кодека/Подсказка : XviD
Продолжительность : 1 ч. 54 м.
Битрейт : 1426 Кбит/сек
Ширина : 720 пикселей
Высота : 304 пикселя
Соотношение сторон : 2,35:1
Частота кадров : 23,976 кадра/сек
Цветовое пространство : YUV
Субдискретизация насыщенности : 4:2:0
Битовая глубина : 8 бит
Тип развёртки : Прогрессивная
Метод сжатия : С потерями
Бит/(Пиксели*Кадры) : 0.272
Размер потока : 1,14 Гбайт (78%)
Библиотека кодирования : XviD 64

Аудио
Идентификатор : 1
Формат : AC-3
Формат/Информация : Audio Coding 3
Расширение режима : CM (complete main)
Идентификатор кодека : 2000
Продолжительность : 1 ч. 54 м.
Вид битрейта : Постоянный
Битрейт : 384 Кбит/сек
Каналы : 6 каналов
Расположение каналов : Front: L C R, Side: L R, LFE
Частота : 48,0 КГц
Битовая глубина : 16 бит
Метод сжатия : С потерями
Размер потока : 314 Мбайт (21%)
Выравнивание : Разделение по промежуткам
Продолжительность промежутка : 42 мс. (1,00 видеокадр)
Время предзагрузки промежутка : 500 мс.



Скачать Коматозники.Flatliners.(Джоэл.Шумахер).[1990.ужасы.фантастика.триллер.драма.BDRip].[Dub].torrent без регистрации
Золото ЗОЛОТАЯ РАЗДАЧА! СКАЧАННОЕ НЕ ЗАСЧИТЫВАЕТСЯ! Золото
Дата: Зарегистрирован   [ Тип: внутренний ] Как тут cкачать?
MAGNET ссылка
MAGNET ссылка


Скачать .torrent

15 KB

Статус: проверено DHT
Скачан: торрент - 167 раз, раздача полностью - 262 раз
Размер: 1,45 GB
Оценка:  - (Голосов: 0)
Поблагодарили: 5
Поделиться ссылкой на эту раздачу с друзьями:
В контактеFacebookОдноклассникиTwitterLivejournalМой МирLiveinternet
 

 
Показать сообщения:    


Вы не можете начинать темы
Вы не можете отвечать на сообщения
Вы не можете редактировать свои сообщения
Вы не можете удалять свои сообщения
Вы не можете голосовать в опросах
Вы не можете прикреплять файлы к сообщениям
Вы можете скачивать файлы