Loading...
Error

Скачать Игра престолов / Game of Thrones (сезон 03) (Алан Тейлор, Даниэль Минахан и др.) [2013, фэнтези, драма, приключения, WEB-DL] [720p] [ (LostFilm)] торрент без регистрации

 
Статистика раздачи
Размер:  19,01 GB   |    Скачан:  459 раз
Сидов:  1  [  0 KB/s  ]  
 
Автор Сообщение

МихаНЕзатор

[] 

Название: Игра престолов
Оригинальное название: Game of Thrones
Жанр:: фэнтези, драма, приключения
Год выпуска: 2013
Режиссёр: Алан Тейлор, Даниэль Минахан, Дэвид Наттер, Брайан Кирк, Тимоти Ван Паттен, Дэвид Петрарка

В ролях: Лена Хиди, Питер Динклэйдж, Мишель Фэйрли, Эмилия Кларк, Кит Харингтон, Николай Костер-Валдау, Иэн Глен, Эйден Гиллен, Элфи Оуэн-Аллен, Мэйси Уильямс, Софи Тернер, Джек Глисон, Исаак Хемпстид-Райт, Ричард Мэдден, Джером Флинн, Конлет Хилл, Дональд Самптер, Рори МакКанн, Амрита Ачария, Чарльз Дэнс, Джон Брэдли, Кристиан Нэйрн, Сибель Кекилли, Джеймс Космо, Стивен Диллэйн, Гетин Энтони, Гвендолин Кристи, Натали Дормер, Уна Чаплин, Нонсо Анози, Роуз Лесли, Оуэн Тил, Уилко Джонсон, Питер Вон

Описание: Люди, отказавшиеся жить по законам Семи Королевств, получили название одичалых и были изгнаны за Стену, на страже которой стоит Ночной Дозор. Но орден был учрежден, чтобы защищать мир людей от совсем другой силы Белых Ходоков, ныне пробудившихся и угрожающих всему живому. Король одичалых Манс готов на все, чтобы убедить Дозор пропустить свой народ за Стену.
Однако южные лорды и короли как и прежде глухи к сообщениям о скорой зиме, о пробуждении Иных и о вторжении одичалых. Король Станнис Баратеон скрылся после поражения на Черноводной в своем замке, король Бейлон Грейджой разоряет побережье, король Робб теряет союзников, а король Джоффри, напротив, имея в союзниках два самых влиятельных дома Королевств, надеется вскоре разбить всех своих врагов. Третий сезон Игры престолов поставлен по первой половине третьего тома Песни Льда и Пламени (Буря мечей).

Выпущено: США, Северная Ирландия / HBO, Northern Ireland Scr
Продолжительность: 01 х ~ 00:55:00
Перевод: Профессиональный (многоголосый, закадровый) - LostFilm
Русские субтитры: Нет

Релиз от:

Качество: WEB-DL 720p
Формат: МКV
Видео: MPEG-4 AVC, ~4000 Кбит/с, 1280x720
Аудио rus: АС3, 6 ch, 384 Кбит/с
Аудио eng: АС3, 6 ch, 384 Кбит/с

13.06.2013 г. торент обновлён, заменён на WEB-DL и 6-ти канальный звук, сезон полностью!

01. Valar Dohaeris / Валар Дохариес
02. Черные крылья, черные вести / Dark Wings, Dark Words
03. Стезя страданий / Walk of Punishment
04. Теперь его дозор окончен / And Now His Watch is Ended
05. Поцелованная огнем / Kissed by Fire
06. Подъем / The Climb
07. Медведь и прекрасная дева / The Bear and the Maiden Fair
08. Младшие Сыны / Second Sons
09. Рейны из Кастамере / The Rains of Castamere
10. Миса / Mhysa
Общее
Уникальный идентификатор : 185325950626855666423332307750940931154 (0x8B6C7AD2C256A223A229FBE1D46D7452)
Полное имя : D:Game.of.Thrones.S03E01.720p.rus.LostFilm.TV.mkv
Формат : Matroska
Размер файла : 1,93 Гбайт
Продолжительность : 57 м.
Общий поток : 4810 Кбит/сек
Дата кодирования : UTC 2013-04-03 17:35:58
Программа кодирования : mkvmerge v4.2.0 ('No Talking') сборка от Jul 28 2010 18:38:23
Библиотека кодирования : libebml v1.0.0 + libmatroska v1.0.0

Видео
Идентификатор : 1
Формат : AVC
Формат/Информация : Advanced Video Codec
Профиль формата : High@L3.1
Параметр CABAC формата : Да
Параметр ReFrames формата : 4 кадра
Параметры GOP формата : M=3, N=6
Идентификатор кодека : V_MPEG4/ISO/AVC
Продолжительность : 57 м.
Битрейт : 4041 Кбит/сек
Ширина : 1280 пикс.
Высота : 720 пикс.
Соотношение сторон : 16:9
Частота кадров : 23,976 кадр/сек
Цветовое пространство : YUV
Подвыборка цветности : 4:2:0
Битовая глубина : 8 бит
Тип развёртки : Прогрессивная
Бит/(Пиксели*Кадры) : 0.183
Размер потока : 1,58 Гбайт (82%)
Библиотека кодирования : x264 core 112 r1834 a51816a
Настройки программы : cabac=1 / ref=1 / deblock=1:0:0 / analyse=0x3:0x113 / me=hex / subme=7 / psy=1 / psy_rd=1.00:0.00 / mixed_ref=0 / me_range=16 / chroma_me=1 / trellis=1 / 8x8dct=1 / cqm=0 / deadzone=21,11 / fast_pskip=1 / chroma_qp_offset=-2 / threads=6 / sliced_threads=0 / nr=0 / decimate=1 / interlaced=0 / constrained_intra=0 / bframes=3 / b_pyramid=2 / b_adapt=1 / b_bias=0 / direct=1 / weightb=1 / open_gop=0 / weightp=2 / keyint=250 / keyint_min=25 / scenecut=40 / intra_refresh=0 / rc_lookahead=40 / rc=2pass / mbtree=1 / bitrate=4041 / ratetol=1.0 / qcomp=0.60 / qpmin=0 / qpmax=51 / qpstep=4 / cplxblur=20.0 / qblur=0.5 / ip_ratio=1.40 / aq=1:1.00

Аудио #1
Идентификатор : 2
Формат : AC-3
Формат/Информация : Audio Coding 3
Расширение режима : CM (complete main)
Идентификатор кодека : A_AC3
Продолжительность : 57 м.
Вид битрейта : Постоянный
Битрейт : 384 Кбит/сек
Каналы : 2 канала
Расположение каналов : Front: L R
Частота : 48,0 КГц
Битовая глубина : 16 бит
Метод сжатия : С потерями
Размер потока : 157 Мбайт (8%)

Аудио #2
Идентификатор : 3
Формат : AC-3
Формат/Информация : Audio Coding 3
Расширение режима : CM (complete main)
Идентификатор кодека : A_AC3
Продолжительность : 57 м.
Вид битрейта : Постоянный
Битрейт : 384 Кбит/сек
Каналы : 2 канала
Расположение каналов : Front: L R
Частота : 48,0 КГц
Битовая глубина : 16 бит
Метод сжатия : С потерями
Размер потока : 157 Мбайт (8%)



Скачать Игра.престолов.Game.of.Thrones.(сезон.03).(Алан.Тейлор.Даниэль.Минахан.и.др.).[2013.фэнтези.драма.приключения.WEB-DL].[720p].[.(LostFilm)].torrent без регистрации
Золото ЗОЛОТАЯ РАЗДАЧА! СКАЧАННОЕ НЕ ЗАСЧИТЫВАЕТСЯ! Золото
Дата: Зарегистрирован   [ Тип: внутренний ] Как тут cкачать?
MAGNET ссылка
MAGNET ссылка


Скачать .torrent

49 KB

Статус: проверено DHT
Скачан: торрент - 459 раз, раздача полностью - 117 раз
Размер: 19,01 GB
Оценка:  5 (Голосов: 4)
Поблагодарили: 15
Поделиться ссылкой на эту раздачу с друзьями:
В контактеFacebookОдноклассникиTwitterLivejournalМой МирLiveinternet
 

 

yuretz

[] 

ждем нового обновления!
 

МихаНЕзатор

[] 

Раздача обновлена
 
Показать сообщения:    


Вы не можете начинать темы
Вы не можете отвечать на сообщения
Вы не можете редактировать свои сообщения
Вы не можете удалять свои сообщения
Вы не можете голосовать в опросах
Вы не можете прикреплять файлы к сообщениям
Вы можете скачивать файлы