Loading...
Error

Скачать Беглый огонь / Rapid Fire (Дуайт Х. Литтл) [1992, боевик, триллер, драма, криминал, DVDRip] [Лицензия] торрент без регистрации

 
Статистика раздачи
Размер:  746 MB   |    Скачан:  150 раз

Полного источника не было: 28 минут

 
Автор Сообщение

leon030982

[] 

Беглый огонь / Rapid Fire
Страна: США
Жанр: боевик, триллер, драма, криминал
Год выпуска: 1992
Продолжительность: 01:31:14
Перевод: Профессиональный (многоголосый закадровый) Лицензия
Cубтитры: нет
Режиссер: Дуайт Х. Литтл / Dwight H. Little
В ролях: Брэндон Ли, Пауэрс Бут, Ник Манкузо, Рэймонд Дж. Бэрри, Кейт Ходж, Ци Ма, Тони Лонго, Майкл Пол Чан, Дастин Нгуен, Бриджитта Штенберг
Описание: Студент-байкер Джейк Ло становится свидетелем жестокого убийства. Не думая о том, кто стоит за спиной убийц, он соглашается свидетельствовать в суде, и тут же чьи-то люди под видом агентов ФБР пытаются убрать его. Едва ускользнув от лже-агентов, Джейк оказывается в центре ураганной схватки за его голову. ФБР, наркобароны, друзья, враги — все смешалось, и неизвестно, кто несет смерть, а кто — помощь. Здесь могут спасти только инстинкты. И инстинкт подсказывает, что единственный, кому можно верить — офицер полиции Райан. Но единственное, что может предложить Райан — сыграть подсадную утку в его охоте.


Качество видео: DVDRip
Формат видео: AVI
Видео: 688x368 (1.87:1), 25 fps, XviD build 64 ~1004 kbps avg, 0.16 bit/pixel
Аудио: 48 kHz, MPEG Layer 3, 2 ch, ~128.00 kbps avg
General
Complete name : D:\Релизы\(1992) Беглый огонь.avi
Format : AVI
Format/Info : Audio Video Interleave
File size : 746 MiB
Duration : 1h 31mn
Overall bit rate : 1 142 Kbps
Writing application : VirtualDubMod 1.5.10.3 | www.virtualdub-fr.org || (build 2550/release)
Writing library : VirtualDubMod build 2550/release
Video
ID : 0
Format : MPEG-4 Visual
Format profile : Advanced Simple@L5
Format settings, BVOP : 1
Format settings, QPel : No
Format settings, GMC : No warppoints
Format settings, Matrix : Custom
Codec ID : XVID
Codec ID/Hint : XviD
Duration : 1h 31mn
Bit rate : 1 005 Kbps
Width : 688 pixels
Height : 368 pixels
Display aspect ratio : 1.870
Frame rate : 25.000 fps
Color space : YUV
Chroma subsampling : 4:2:0
Bit depth : 8 bits
Scan type : Progressive
Compression mode : Lossy
Bits/(Pixel*Frame) : 0.159
Stream size : 656 MiB (88%)
Writing library : XviD 64
Audio
ID : 1
Format : MPEG Audio
Format version : Version 1
Format profile : Layer 3
Mode : Joint stereo
Mode extension : MS Stereo
Codec ID : 55
Codec ID/Hint : MP3
Duration : 1h 31mn
Bit rate mode : Constant
Bit rate : 128 Kbps
Channel(s) : 2 channels
Sampling rate : 48.0 KHz
Compression mode : Lossy
Stream size : 83.5 MiB (11%)
Alignment : Aligned on interleaves
Interleave, duration : 40 ms (1.00 video frame)
Interleave, preload duration : 504 ms
Writing library : LAME3.98r
Encoding settings : -m j -V 4 -q 2 -lowpass 17 -b 128



Скачать Беглый.огонь.Rapid.Fire.(Дуайт.Х.Литтл).[1992.боевик.триллер.драма.криминал.DVDRip].[Лицензия].torrent без регистрации
Золото ЗОЛОТАЯ РАЗДАЧА! СКАЧАННОЕ НЕ ЗАСЧИТЫВАЕТСЯ! Золото
Дата: Зарегистрирован   [ Тип: внутренний ] Как тут cкачать?
MAGNET ссылка
MAGNET ссылка


Скачать .torrent

15 KB

Статус: проверено DHT
Скачан: торрент - 150 раз, раздача полностью - 13 раз
Размер: 746 MB
Оценка:  5 (Голосов: 1)
Поблагодарили: 2
Поделиться ссылкой на эту раздачу с друзьями:
В контактеFacebookОдноклассникиTwitterLivejournalМой МирLiveinternet
 

 
Показать сообщения:    


Вы не можете начинать темы
Вы не можете отвечать на сообщения
Вы не можете редактировать свои сообщения
Вы не можете удалять свои сообщения
Вы не можете голосовать в опросах
Вы не можете прикреплять файлы к сообщениям
Вы можете скачивать файлы