Loading...
Error

Скачать Игра престолов / Game of Thrones (сезон 05) (Алан Тейлор и др.) [2015, фэнтези, драма, приключения, WEB-DL] [1080p] [MVO (AlexFilm)]+[Eng] торрент без регистрации

 
Статистика раздачи
Размер:  41,08 GB   |    Скачан:  247 раз

Полного источника не было: 26 минут

 
Автор Сообщение

МихаНЕзатор

[] 





***** Игра престолов / Game of Thrones *****




* Информация о фильме: *

* Название: Игра престолов
* Оригинальное название: Game of Thrones
* Год выхода: 2015
* Жанр: фэнтези, драма
* Режиссер: Майкл Словис, Марк Майлод, Джереми Подесва, Мигель Сапочник, Дэвид Наттер

* В ролях: * Питер Динклэйдж (Тирион Ланнистер), Лена Хиди (Серсея Ланнистер), Николай Костер-Вальдау (Джейме Ланнистер), Эмилия Кларк (Дейенерис Таргариен), Эйдан Гиллен (Петир Бейлиш), Иэн Глен (сир Джорах Мормонт), Кит Харингтон (Джон Сноу), Лиам Каннингэм (сир Давос Сиворт), Айзек Хэмпстед-Райт (Бран Старк), Софи Тернер (Санса Старк), Мэйси Уильямс (Арья Старк), Элфи Аллен (Теон Грейджой), Джон Брэдли-Уэст (Сэмвел Тарли), Стивен Диллэйн (король Станнис Баратеон), Кэрис Ван Хаутен (Мелисандра), Джером Флинн (Бронн), Конлет Хилл (лорд Варис)...

* Описание фильма: * «Игра престолов» сериал HBO, основанный на бестселлерах Джорджа Р.Р. Мартина. В мире, где лето и зимы длятся десятилетиями, на кону корона Вестероса. Предательство, похоть, интриги и сверхъестественные силы сотрясают все четыре стороны Королевства — от плетущего интриги юга, диких восточных земель, до замерзшего севера и древней Стены, что защищает королевство от тьмы за нею. Короли и королевы, рыцари и мятежники, лжецы и благородные люди борются за власть в кровавом сражении за Железный Трон.



* Страна: США, Великобритания
* Продолжительность: ~ 60 мин
* Перевод: Профессиональный (многоголосый, закадровый) - [AlexFilm]



* Информация о файле: *
* Кодек: AVC
* Формат: MKV
* Качество: WEB-DL 1080p / (Amazon)
* Видео: 1920х1080 (16:9), 23.976 fps, MPEG-4 AVC ~10 000 Kbps, 0.191 bit/pixel
* Аудио RU: 48 kHz, AC3 Dolby Digital, 3/2 (L,C,R,l,r) + LFE ch, ~384.00 kbps
* Аудио EN: 48 kHz, AC3 Dolby Digital, 3/2 (L,C,R,l,r) + LFE ch, ~384.00 kbps
* Субтитры: Русские форсированные (на дотракийскую и валирийскую речь)

АНОНСЫ ПОПУЛЯРНЫХ РАЗДАЧ


Торрент обновлён, улучшен видеоряд, добавлена 10-я серия!
General
Unique ID : 185783914571079585347422881653062737050 (0x8BC4AE30627CF9A780B838F9C0019C9A)
Complete name : Game.of.Thrones.s05e01.WEB-DL.1080p.AlexFilm.mkv
Format : Matroska
Format version : Version 4 / Version 2
File size : 3.82 GiB
Duration : 52mn 9s
Overall bit rate : 10.5 Mbps
Encoded date : UTC 2015-05-20 07:20:42
Writing application : mkvmerge v7.9.0 ('Birds') 64bit
Writing library : libebml v1.3.1 + libmatroska v1.4.2
Video
ID : 1
Format : AVC
Format/Info : Advanced Video Codec
Format profile : High@L4.0
Format settings, CABAC : Yes
Format settings, ReFrames : 4 frames
Codec ID : V_MPEG4/ISO/AVC
Duration : 52mn 9s
Bit rate mode : Constant
Bit rate : 9 514 Kbps
Nominal bit rate : 10 000 Kbps
Width : 1 920 pixels
Height : 1 080 pixels
Display aspect ratio : 16:9
Frame rate mode : Constant
Frame rate : 23.976 fps
Color space : YUV
Chroma subsampling : 4:2:0
Bit depth : 8 bits
Scan type : Progressive
Bits/(Pixel*Frame) : 0.191
Stream size : 3.47 GiB (91%)
Language : English
Default : Yes
Forced : No
Color primaries : BT.709
Transfer characteristics : BT.709
Matrix coefficients : BT.709
Audio #1
ID : 2
Format : AC-3
Format/Info : Audio Coding 3
Mode extension : CM (complete main)
Format settings, Endianness : Big
Codec ID : A_AC3
Duration : 52mn 9s
Bit rate mode : Constant
Bit rate : 384 Kbps
Channel(s) : 6 channels
Channel positions : Front: L C R, Side: L R, LFE
Sampling rate : 48.0 KHz
Bit depth : 16 bits
Compression mode : Lossy
Stream size : 143 MiB (4%)
Language : Russian
Default : Yes
Forced : No
Audio #2
ID : 3
Format : AC-3
Format/Info : Audio Coding 3
Mode extension : CM (complete main)
Format settings, Endianness : Big
Codec ID : A_AC3
Duration : 52mn 9s
Bit rate mode : Constant
Bit rate : 384 Kbps
Channel(s) : 6 channels
Channel positions : Front: L C R, Side: L R, LFE
Sampling rate : 48.0 KHz
Bit depth : 16 bits
Compression mode : Lossy
Stream size : 143 MiB (4%)
Language : English
Default : No
Forced : No
Text
ID : 4
Format : ASS
Codec ID : S_TEXT/ASS
Codec ID/Info : Advanced Sub Station Alpha
Compression mode : Lossless
Language : Russian
Default : Yes
Forced : Yes

Когда раздача ведётся путём добавления новых серий, при каждом добавлении создётся новый торрент. Чтобы начать докачку новой серии, пользователям необходимо сделать следующее:
(1) остановить скачивание,
(2) удалить старый торрент у себя из клиента (старые серии удалять не надо),
(3) скачать новый торрент и запустить его у себя в клиенте вместо старого, при этом указать клиенту путь в старую папку, куда и должно происходить скачивание новых серий.
Ваш клиент при этом должен произвести хеширование (проверку) старой папки (если не производит сам - помогите ему сделать это), и будет докачивать только те серии, которых у вас ещё нет. Старые серии при этом не удаляются, а продолжают раздаваться!
Eсли вы уже удалили старые серии, то предотвратить повторную закачку старых серий можно, отжав галочку в соответсвующих местах при запуске нового торрента. По возможности, желательно не удалять старые серии как можно дольше, чтобы релизёр не столько продолжал раздавать старые серии, а смог сконцентрироваться на новых.



Скачать Игра.престолов.Game.of.Thrones.(сезон.05).(Алан.Тейлор.и.др.).[2015.фэнтези.драма.приключения.WEB-DL].[1080p].[MVO.(AlexFilm)]+[Eng].torrent без регистрации
Золото ЗОЛОТАЯ РАЗДАЧА! СКАЧАННОЕ НЕ ЗАСЧИТЫВАЕТСЯ! Золото
Дата: Зарегистрирован   [ Тип: внутренний ] Как тут cкачать?
MAGNET ссылка
MAGNET ссылка


Скачать .torrent

412 KB

Статус: проверено DHT
Скачан: торрент - 247 раз, раздача полностью - 65 раз
Размер: 41,08 GB
Оценка:  5 (Голосов: 2)
Поблагодарили: 2
Поделиться ссылкой на эту раздачу с друзьями:
В контактеFacebookОдноклассникиTwitterLivejournalМой МирLiveinternet
 

 
Показать сообщения:    


Вы не можете начинать темы
Вы не можете отвечать на сообщения
Вы не можете редактировать свои сообщения
Вы не можете удалять свои сообщения
Вы не можете голосовать в опросах
Вы не можете прикреплять файлы к сообщениям
Вы можете скачивать файлы