Loading...
Error

Скачать Жизнь и страсти Иисуса Христа / La Vie et la passion de Jesus Christ (Люсьен Нонге, Фернан Зекка) [1903, Короткометражка, драма, биография, DVDRip] [VO] торрент без регистрации

 
Статистика раздачи
Размер:  962 MB   |    Скачан:  125 раз

Полного источника не было: 7 дней

 
Автор Сообщение

Marsianka

[] 

Жизнь и страсти Иисуса Христа
La Vie et la passion de Jesus Christ

Страна: Франция
Жанр: Короткометражка, драма, биография
Год выпуска: 1903
Продолжительность: 00:44:19
Перевод: Любительский (одноголосый закадровый) Janchick
Субтитры: нет

Режиссёр: Люсьен Нонге, Фернан Зекка
В ролях: Месье Моро, Мадам Моро

Описание фильма:
Фильм рассказывает о жизни Иисуса Христа от Благовещения до Воскресения. Он состоит из 18 коротких эпизодов, каждый из которых посвящен какой либо сцене из жизни Христа.




Качество: DVDRip
Формат: AVI
Видео: 512x384 (1.333), 25.000 fps, XviD MPEG-4, ~2831 kbps avg, 0.576 bit/pixel bit/pixel
Аудио: 44,1 kHz, MPEG Layer 3, 2 ch, 192 kbps avg









Format : AVI
Format/Info : Audio Video Interleave
File size : 962 MiB
Duration : 44mn 19s
Overall bit rate : 3 036 Kbps
Writing application : MEncoder SVN-r22963
Writing library : MPlayer

Video
ID : 0
Format : MPEG-4 Visual
Format profile : Simple@L1
Format settings, BVOP : No
Format settings, QPel : No
Format settings, GMC : No warppoints
Format settings, Matrix : Default (H.263)
Codec ID : XVID
Codec ID/Hint : XviD
Duration : 44mn 19s
Bit rate : 2 831 Kbps
Width : 512 pixels
Height : 384 pixels
Display aspect ratio : 4:3
Frame rate : 25.000 fps
Color space : YUV
Chroma subsampling : 4:2:0
Bit depth : 8 bits
Scan type : Progressive
Compression mode : Lossy
Bits/(Pixel*Frame) : 0.576
Stream size : 898 MiB (93%)
Writing library : Lavc51.40.2

Audio
ID : 1
Format : MPEG Audio
Format version : Version 1
Format profile : Layer 3
Codec ID : 55
Codec ID/Hint : MP3
Duration : 44mn 19s
Bit rate mode : Constant
Bit rate : 192 Kbps
Channel(s) : 2 channels
Sampling rate : 44.1 KHz
Compression mode : Lossy
Stream size : 60.9 MiB (6%)
Alignment : Aligned on interleaves
Interleave, duration : 26 ms (0.65 video frame)
Interleave, preload duration : 522 ms
Writing library : LAME3.97

Релиз от: Janchick



Скачать Жизнь.и.страсти.Иисуса.Христа.La.Vie.et.la.passion.de.Jesus.Christ.(Люсьен.Нонге.Фернан.Зекка).[1903.Короткометражка.драма.биография.DVDRip].[VO].torrent без регистрации
Золото ЗОЛОТАЯ РАЗДАЧА! СКАЧАННОЕ НЕ ЗАСЧИТЫВАЕТСЯ! Золото
Дата: Зарегистрирован   [ Тип: внутренний ] Как тут cкачать?
MAGNET ссылка
MAGNET ссылка


Скачать .torrent

19 KB

Статус: проверено
Скачан: торрент - 125 раз, раздача полностью - 30 раз
Размер: 962 MB
Оценка:  - (Голосов: 0)
Поблагодарили: 1
Поделиться ссылкой на эту раздачу с друзьями:
В контактеFacebookОдноклассникиTwitterLivejournalМой МирLiveinternet
 

 
Показать сообщения:    


Вы не можете начинать темы
Вы не можете отвечать на сообщения
Вы не можете редактировать свои сообщения
Вы не можете удалять свои сообщения
Вы не можете голосовать в опросах
Вы не можете прикреплять файлы к сообщениям
Вы можете скачивать файлы