Loading...
Error

Скачать К-9: Собачья работа / K-9 (Род Дэниел) [1989 г., Комедия, HDTVRip] [AVO] (Гаврилов, Горчаков, неизвестный К-9) торрент без регистрации

 
Статистика раздачи
Размер:  1,88 GB   |    Скачан:  5374 раза
Сидов:  1  [  0 KB/s  ]  
 
Автор Сообщение

leon030982

[] 

К-9: Собачья работа / К-9
Год выпуска: 1989
Страна: США
Жанр: Комедия
Продолжительность: 01:37:08
Перевод: Авторский (одноголосый): 1-я дорожка - Андрей Гаврилов; 2-я дорожка - Василий Горчаков; 3-я дорожка - неизвестный К-9 + 4-я дорожка - оригинальная английская.
Русские субтитры: нет
Режиссер: Род Дэниел / Rod Daniel
В ролях: Джеймс Белуши / James Belushi, Джерри Ли / Jerry Lee, Мел Харрис / Mel Harris, Кевин Тиг / Kevin Tighe, Джеймс Хенди / James Handy, Эд О'Нилл / Ed O'Neill
Описание:
Два друга-напарника.
Два самых крутых полицейских в городе...
Угадайте, кто из них сообразительней?


Классическая комедия Рода Дэниела с несравненным Джеймсом Белуши в главной роли.
Никто не может ужиться со специальным агентом отдела по борьбе с наркотиками Томом Дули (Белуши). От этого "крутого" служителя законы напарники бегут во все стороны. Поэтому начальство решило определить в партнеры Тому хорошо подготовленного и опытного полицейского, у которого свой особый нюх на преступников, - заслуженного пса по имени Джерри Ли. И как ни странно, Дули и отважный Джерри Ли отлично сработались. Вместе двум копам предстоит "разобраться" со всеми злодеями, познакомиться с отличными девочками, стать гордостью полицейского управления и познать, что такое настоящая, "мужская" дружба
.


Качество: HDTVRip / Исходник: DVB HDTV 1080i
Формат: AVI
Видео: 704x384 (1.83:1), 25 fps, XviD build 50 ~1979 kbps avg, 0.29 bit/pixel
Аудио#1: 48 kHz, AC3 Dolby Digital, 2/0 (L,R) ch, ~192.00 kbps avg - Гаврилов
Аудио#2: 48 kHz, AC3 Dolby Digital, 2/0 (L,R) ch, ~192.00 kbps avg - Горчаков
Аудио#3: 48 kHz, AC3 Dolby Digital, 2/0 (L,R) ch, ~192.00 kbps avg - Неизвестный К-9
Аудио#4: 48 kHz, AC3 Dolby Digital, 2/0 (L,R) ch, ~192.00 kbps avg - Оригинальная
Общее
Полное имя : D:\Мои документы\Кинофильмы\Кино\Мои раздачи (незаболваненные)\K-9 (Gavrilov, Gorchakov, Unknow, Eng) (HDTVRip) by A.P..avi
Формат : AVI
Формат/Информация : Audio Video Interleave
Размер файла : 1,88 Гбайт
Продолжительность : 1 ч. 37 м.
Общий поток : 2774 Кбит/сек
Программа кодирования : VirtualDubMod 1.5.10.3 | www.virtualdub-fr.org || (build 2550/release)
Библиотека кодирования : VirtualDubMod build 2550/release
Видео
Идентификатор : 0
Формат : MPEG-4 Visual
Профиль формата : Advanced Simple@L5
Параметр BVOP формата : 1
Параметр QPel формата : Нет
Параметр GMC формата : Без точки перехода
Параметр матрицы формата : Выборочная
Идентификатор кодека : XVID
Идентификатор кодека/Подсказка : XviD
Продолжительность : 1 ч. 37 м.
Битрейт : 1982 Кбит/сек
Ширина : 704 пикселя
Высота : 384 пикселя
Соотношение сторон : 16:9
Частота кадров : 25,000 кадров/сек
Цветовое пространство : YUV
Субдискретизация насыщенности : 4:2:0
Битовая глубина : 8 бит
Тип развёртки : Прогрессивная
Метод сжатия : С потерями
Бит/(Пиксели*Кадры) : 0.293
Размер потока : 1,34 Гбайт (71%)
Библиотека кодирования : XviD 1.2.1 (UTC 2008-12-04)
Аудио #1
Идентификатор : 1
Формат : AC-3
Формат/Информация : Audio Coding 3
Расширение режима : CM (complete main)
Идентификатор кодека : 2000
Продолжительность : 1 ч. 37 м.
Вид битрейта : Постоянный
Битрейт : 192 Кбит/сек
Каналы : 2 канала
Расположение каналов : Front: L R
Частота : 48,0 КГц
Битовая глубина : 16 бит
Метод сжатия : С потерями
Размер потока : 133 Мбайт (7%)
Выравнивание : Разделение по промежуткам
Продолжительность промежутка : 40 мс. (1,00 видеокадр)
Время предзагрузки промежутка : 500 мс.
Аудио #2
Идентификатор : 2
Формат : AC-3
Формат/Информация : Audio Coding 3
Расширение режима : CM (complete main)
Идентификатор кодека : 2000
Продолжительность : 1 ч. 37 м.
Вид битрейта : Постоянный
Битрейт : 192 Кбит/сек
Каналы : 2 канала
Расположение каналов : Front: L R
Частота : 48,0 КГц
Битовая глубина : 16 бит
Метод сжатия : С потерями
Размер потока : 133 Мбайт (7%)
Выравнивание : Разделение по промежуткам
Продолжительность промежутка : 40 мс. (1,00 видеокадр)
Время предзагрузки промежутка : 500 мс.
Аудио #3
Идентификатор : 3
Формат : AC-3
Формат/Информация : Audio Coding 3
Расширение режима : CM (complete main)
Идентификатор кодека : 2000
Продолжительность : 1 ч. 37 м.
Вид битрейта : Постоянный
Битрейт : 192 Кбит/сек
Каналы : 2 канала
Расположение каналов : Front: L R
Частота : 48,0 КГц
Битовая глубина : 16 бит
Метод сжатия : С потерями
Размер потока : 133 Мбайт (7%)
Выравнивание : Разделение по промежуткам
Продолжительность промежутка : 40 мс. (1,00 видеокадр)
Время предзагрузки промежутка : 500 мс.
Аудио #4
Идентификатор : 4
Формат : AC-3
Формат/Информация : Audio Coding 3
Расширение режима : CM (complete main)
Идентификатор кодека : 2000
Продолжительность : 1 ч. 37 м.
Вид битрейта : Постоянный
Битрейт : 192 Кбит/сек
Каналы : 2 канала
Расположение каналов : Front: L R
Частота : 48,0 КГц
Битовая глубина : 16 бит
Метод сжатия : С потерями
Размер потока : 133 Мбайт (7%)
Выравнивание : Разделение по промежуткам
Продолжительность промежутка : 40 мс. (1,00 видеокадр)
Время предзагрузки промежутка : 500 мс.



Скачать К-9.Собачья.работа.K-9.(Род.Дэниел).[1989.г.Комедия.HDTVRip].[AVO].(Гаврилов.Горчаков.неизвестный.К-9).torrent без регистрации
Золото ЗОЛОТАЯ РАЗДАЧА! СКАЧАННОЕ НЕ ЗАСЧИТЫВАЕТСЯ! Золото
Дата: Зарегистрирован   [ Тип: внутренний ] Как тут cкачать?
MAGNET ссылка
MAGNET ссылка


Скачать .torrent

19 KB

Статус: проверено DHT
Скачан: торрент - 5374 раз, раздача полностью - 97 раз
Размер: 1,88 GB
Оценка:  - (Голосов: 0)
Поблагодарили: 2
Поделиться ссылкой на эту раздачу с друзьями:
В контактеFacebookОдноклассникиTwitterLivejournalМой МирLiveinternet
 

 
Показать сообщения:    


Вы не можете начинать темы
Вы не можете отвечать на сообщения
Вы не можете редактировать свои сообщения
Вы не можете удалять свои сообщения
Вы не можете голосовать в опросах
Вы не можете прикреплять файлы к сообщениям
Вы можете скачивать файлы