Loading...
Error

Скачать Бесстыдники / Shameless (сезон 03) (Марк Майлод и др.) [2013, комедия, драма, HDTVRip] [MVO (AlexFilm)]+[Eng]+[Sub Rus, Eng] торрент без регистрации

 
Статистика раздачи
Размер:  7,27 GB   |    Скачан:  257 раз
Сидов:  1  [  0 KB/s  ]  
 
Автор Сообщение

МихаНЕзатор

[] 

Название: Бесстыжие
Оригинальное название: Shameless
Год выпуска: 2013
Жанр: комедия, драма
Режиссер: Марк Майлод, Джон Уэллс, Стивен Хопкинс, Тодд Холлэнд, Мими Ледер, Джон Дал

В ролях: Уильям Х. Мэйси, Эмми Россам, Итэн Каткоски, Джастин Чэтвин, Блейк Александр Джонсон, Бреннан Кэйн Джонсон, Кельвин Гилмор, Камерон Монахэн, Лаура Уиггинс, Джоэль Мюррэй, Пей Вахдат, Джоан Кьюсак

Описание: Shameless, основанный на одноименном британском сериале, расскажет о семействе Галлагеров из Чикаго. Мать уже давно бросила семью, а отец-алкоголик обычно лежит в отключке, поэтому 18-летней дочери приходится взять на себя обязанности родителя и воспитывать пятерых братьев и сестер.

Релиз от:

Страна: США
Продолжительность: 02 x ~ 01:00:00
Перевод: Профессиональный (многоголосый, закадровый) - AlexFilm
Субтитры: Русские, английские

Озвучка: Евгения Тихонова, Анастасия Флигина, Константин Погодаев, Александр Дасевич, Михаил Суслов
Перевод: Олег Папулов (Jeketeur)

Качество: HDTVRip
Формат: AVI
Видео: 720x400 (1.80:1), 23.976 fps, XviD build 50 ~1293 kbps avg, 0.19 bit/pixel
Аудио rus: MP3, 48 kHz, MPEG Layer 3, 2 ch, ~128.00 kbps avg
Аудио eng: MP3, 48 kHz, MPEG Layer 3, 2 ch, ~128.00 kbps avg

АНОНСЫ ПОПУЛЯРНЫХ РАЗДАЧ


14.04.2013 г. торент обновлён, добавлена 12 серия, сезон полностью!

01. Большой Каньон (El Gran Canon)
02. Американская мечта (The American Dream)
03. Можно подстричь твою изгородь? (May I Trim Your Hedges?)
04. Галлагеры спешат на помощь (The Helpful Gallaghers)
05. Грехи моего опекуна (The Sins of My Caretaker)
06. Череда неудач (Cascading Failures)
07. Долгая дорога от дома (A Long Way From Home)
08. Было бы завещание (Where There's a Will)
09. (Frank the Plumber)
10. (Civil Wrongs)
11. (Order Room Service)
12. (Survival of the Fittest)
Format : AVI
Format/Info : Audio Video Interleave
File size : 672 MiB
Duration : 1h 0mn
Overall bit rate : 1 564 Kbps
Writing application : VirtualDubMod 1.5.10.2 (build 2542/release)
Writing library : VirtualDubMod build 2542/release

Video
ID : 0
Format : MPEG-4 Visual
Format profile : Advanced Simple@L5
Format settings, BVOP : 1
Format settings, QPel : No
Format settings, GMC : No warppoints
Format settings, Matrix : Default (MPEG)
Codec ID : XVID
Codec ID/Hint : XviD
Duration : 1h 0mn
Bit rate : 1 294 Kbps
Width : 720 pixels
Height : 400 pixels
Display aspect ratio : 16:9
Frame rate : 23.976 fps
Color space : YUV
Chroma subsampling : 4:2:0
Bit depth : 8 bits
Scan type : Progressive
Compression mode : Lossy
Bits/(Pixel*Frame) : 0.187
Stream size : 556 MiB (83%)
Writing library : XviD 1.2.1 (UTC 2008-12-04)

Audio #1
ID : 1
Format : MPEG Audio
Format version : Version 1
Format profile : Layer 3
Mode : Joint stereo
Mode extension : MS Stereo
Codec ID : 55
Codec ID/Hint : MP3
Duration : 1h 0mn
Bit rate mode : Constant
Bit rate : 128 Kbps
Channel(s) : 2 channels
Sampling rate : 48.0 KHz
Compression mode : Lossy
Stream size : 55.0 MiB (8%)
Alignment : Aligned on interleaves
Interleave, duration : 42 ms (1.00 video frame)
Interleave, preload duration : 504 ms

Audio #2
ID : 2
Format : MPEG Audio
Format version : Version 1
Format profile : Layer 3
Mode : Joint stereo
Codec ID : 55
Codec ID/Hint : MP3
Duration : 1h 0mn
Bit rate mode : Constant
Bit rate : 128 Kbps
Channel(s) : 2 channels
Sampling rate : 48.0 KHz
Compression mode : Lossy
Stream size : 55.0 MiB (8%)
Alignment : Aligned on interleaves
Interleave, duration : 42 ms (1.00 video frame)
Interleave, preload duration : 504 ms



Скачать Бесстыдники.Shameless.(сезон.03).(Марк.Майлод.и.др.).[2013.комедия.драма.HDTVRip].[MVO.(AlexFilm)]+[Eng]+[Sub.Rus.Eng].torrent без регистрации
Золото ЗОЛОТАЯ РАЗДАЧА! СКАЧАННОЕ НЕ ЗАСЧИТЫВАЕТСЯ! Золото
Дата: Зарегистрирован   [ Тип: внутренний ] Как тут cкачать?
MAGNET ссылка
MAGNET ссылка


Скачать .torrent

38 KB

Статус: проверено DHT
Скачан: торрент - 257 раз, раздача полностью - 534 раз
Размер: 7,27 GB
Оценка:  - (Голосов: 0)
Поблагодарили: 7
Поделиться ссылкой на эту раздачу с друзьями:
В контактеFacebookОдноклассникиTwitterLivejournalМой МирLiveinternet
 

 

МихаНЕзатор

[] 

Раздача обновлена
 
Показать сообщения:    


Вы не можете начинать темы
Вы не можете отвечать на сообщения
Вы не можете редактировать свои сообщения
Вы не можете удалять свои сообщения
Вы не можете голосовать в опросах
Вы не можете прикреплять файлы к сообщениям
Вы можете скачивать файлы