Loading...
Error

Скачать Место отдыха / Resting Place (Джон Корти) [1986, Драма, BDRip] [MVO] торрент без регистрации

 
Статистика раздачи
Размер:  1,46 GB   |    Скачан:  129 раз

Полного источника не было: 4 года 2 месяца

 
Автор Сообщение

leon030982

[] 

Место отдыха / Resting Place
Страна: США
Жанр: Драма
Год выпуска: 1986
Продолжительность: 01:34:23
Перевод: Профессиональный (многоголосый закадровый) Петербург 5 канал
Cубтитры: нет
Режиссер: Джон Корти / John Korty
В ролях: Ричард Брэдфорд, Ричард Брукс, Морган Фриман, Джон Литгоу, Джон Филбин, Си Си Эйч Паундер, Г.Д. Спрэдлин, Фрэнсис Стернхаген, Брайан Тарантина, М. Эммет Уолш
Описание: Майор Кендалл Лэйрд сопровождает тело молодого черного лейтенанта, убитого в бою, в его родной город в Джорджии. Несмотря на то, что кладбище в этом городе только для белых, кто-то из либерально настроенных горожан заплатил за место на кладбище для лейтенанта. Лэйрд хочет убедить расистски настроенную часть города в том, что лейтенант умер как герой и заслуживает быть похороненным на кладбище в родном городе. Однако неожиданно майор обнаруживает свидетельства, указывающие на то, что, возможно, лейтенант был убит своими же подчиненными.

Доп. информация: Данный BDRip сделан из BDRemux 1080i, за который, огромнейшее спасибо "Grimlen"!!!
[/b][/size][/color]
Сэмпл: http://multi-up.com/643659
Качество видео: BDRip
Формат видео: AVI
Видео: 704x368 (1.91:1), 25 fps, XviD build 50, 2017 kbps avg, 0.31 bit/pixel
Аудио: Russian: 48 kHz, AC3 Dolby Digital, 2/0 (L,R) ch, 192.00 kbps avg
Релиз группы:
General
Complete name : E:\Мои раздачи\Resting Place_RG_All_Films.avi
Format : AVI
Format/Info : Audio Video Interleave
File size : 1.46 GiB
Duration : 1h 34mn
Overall bit rate : 2 219 Kbps
Writing application : VirtualDubMod 1.5.10.3 | www.virtualdub-fr.org || (build 2550/release)
Writing library : VirtualDubMod build 2550/release
Video
ID : 0
Format : MPEG-4 Visual
Format profile : Advanced Simple@L5
Format settings, BVOP : Yes
Format settings, QPel : No
Format settings, GMC : No warppoints
Format settings, Matrix : Custom
Codec ID : XVID
Codec ID/Hint : XviD
Duration : 1h 34mn
Bit rate : 2 018 Kbps
Width : 704 pixels
Height : 368 pixels
Display aspect ratio : 1.913
Frame rate : 25.000 fps
Color space : YUV
Chroma subsampling : 4:2:0
Bit depth : 8 bits
Scan type : Progressive
Compression mode : Lossy
Bits/(Pixel*Frame) : 0.312
Stream size : 1.33 GiB (91%)
Writing library : XviD 1.2.1 (UTC 2008-12-04)
Audio
ID : 1
Format : AC-3
Format/Info : Audio Coding 3
Mode extension : CM (complete main)
Codec ID : 2000
Duration : 1h 34mn
Bit rate mode : Constant
Bit rate : 192 Kbps
Channel(s) : 2 channels
Channel positions : Front: L R
Sampling rate : 48.0 KHz
Bit depth : 16 bits
Compression mode : Lossy
Stream size : 130 MiB (9%)
Alignment : Split accross interleaves
Interleave, duration : 40 ms (1.00 video frame)
Interleave, preload duration : 500 ms



Скачать Место.отдыха.Resting.Place.(Джон.Корти).[1986.Драма.BDRip].[MVO].torrent без регистрации
Золото ЗОЛОТАЯ РАЗДАЧА! СКАЧАННОЕ НЕ ЗАСЧИТЫВАЕТСЯ! Золото
Дата: Зарегистрирован   [ Тип: внутренний ] Как тут cкачать?
MAGNET ссылка
MAGNET ссылка


Скачать .torrent

15 KB

Статус: проверено
Скачан: торрент - 129 раз, раздача полностью - 2 раз
Размер: 1,46 GB
Оценка:  - (Голосов: 0)
Поблагодарили: 1
Поделиться ссылкой на эту раздачу с друзьями:
В контактеFacebookОдноклассникиTwitterLivejournalМой МирLiveinternet
 

 
Показать сообщения:    


Вы не можете начинать темы
Вы не можете отвечать на сообщения
Вы не можете редактировать свои сообщения
Вы не можете удалять свои сообщения
Вы не можете голосовать в опросах
Вы не можете прикреплять файлы к сообщениям
Вы можете скачивать файлы