Loading...
Error

Скачать Гольф-клуб 2 / Caddyshack II (Аллан Аркуш) [1988, комедия, спорт, DVDRip] [AVO] (Горчаков) торрент без регистрации

 
Статистика раздачи
Размер:  746 MB   |    Скачан:  136 раз

Полного источника не было: 5 месяцев 20 дней

 
Автор Сообщение

leon030982

[] 

Гольф-клуб 2 / Caddyshack II
Страна: США
Жанр: комедия, спорт
Год выпуска: 1988
Продолжительность: 01:33:15
Перевод: Авторский (одноголосый закадровый)
Режиссер: Аллан Аркуш / Allan Arkush
В ролях: Джеки Мэйсон, Роберт Стэк, Дайан Кэннон, Дина Мэрилл, Джонатан Силвермен, Брайан МакНамара, Марша Уорфилд, Пол Бартел, Джессика Ланди, Чайнна Филлипс
Описание: Безумные игроки гольф-клуба «Бушвуд» снова выходят на поле. И на этот раз они не шутят! Джеки Мэйсон, в роли миллионера, продемонстрирует вам суперхиты из своей коллекции приколов и «запредельных» шуток в «убойном» продолжении знаменитой комедии.
Кинопоиск | IMDb | Сэмпл

Качество видео: DVDRip (исходник DVD5)
Формат видео: AVI
Видео: 512x400 (1.28:1), 25 fps, XviD build 50 ~979 kbps avg, 0.19 bit/pixel
Аудио: 48 kHz, MPEG Layer 3, 2 ch, ~128.00 kbps avg (VHS)

Общее
Полное имя : gol'f-klub_2_dvdrip_745.avi
Формат : AVI
Формат/Информация : Audio Video Interleave
Размер файла : 746 Мбайт
Продолжительность : 1 ч. 33 м.
Общий поток : 1118 Кбит/сек
Программа кодирования : VirtualDubMod 1.5.10.3 | www.virtualdub-fr.org || (build 2550/release)
Библиотека кодирования : VirtualDubMod build 2550/release
Видео
Идентификатор : 0
Формат : MPEG-4 Visual
Профиль формата : Advanced Simple@L5
Параметр BVOP формата : 1
Параметр QPel формата : Нет
Параметр GMC формата : Без точки перехода
Параметр матрицы формата : Default (MPEG)
Идентификатор кодека : XVID
Идентификатор кодека/Подсказка : XviD
Продолжительность : 1 ч. 33 м.
Битрейт : 980 Кбит/сек
Ширина : 512 пикс.
Высота : 400 пикс.
Соотношение сторон : 1,280
Частота кадров : 25,000 кадр/сек
Цветовое пространство : YUV
Подвыборка цветности : 4:2:0
Битовая глубина : 8 бит
Тип развёртки : Прогрессивная
Метод сжатия : С потерями
Бит/(Пиксели*Кадры) : 0.191
Размер потока : 654 Мбайт (88%)
Библиотека кодирования : XviD 1.2.1 (UTC 2008-12-04)
Аудио
Идентификатор : 1
Формат : MPEG Audio
Версия формата : Version 1
Профиль формата : Layer 3
Идентификатор кодека : 55
Идентификатор кодека/Подсказка : MP3
Продолжительность : 1 ч. 33 м.
Вид битрейта : Постоянный
Битрейт : 128 Кбит/сек
Канал(ы) : 2 канала(ов)
Частота : 48,0 КГц
Метод сжатия : С потерями
Размер потока : 85,4 Мбайт (11%)
Выравнивание : Соединение по промежуткам
Продолжительность промежутка : 40 мс. (1,00 видеокадр)
Время предзагрузки промежутка : 504 ms
Библиотека кодирования : LAME3.98r
Настройки программы : -m s -V 4 -q 2 -lowpass 17 -b 128



Скачать Гольф-клуб.2.Caddyshack.II.(Аллан.Аркуш).[1988.комедия.спорт.DVDRip].[AVO].(Горчаков).torrent без регистрации
Золото ЗОЛОТАЯ РАЗДАЧА! СКАЧАННОЕ НЕ ЗАСЧИТЫВАЕТСЯ! Золото
Дата: Зарегистрирован   [ Тип: внутренний ] Как тут cкачать?
MAGNET ссылка
MAGNET ссылка


Скачать .torrent

15 KB

Статус: проверено
Скачан: торрент - 136 раз, раздача полностью - 2 раз
Размер: 746 MB
Оценка:  - (Голосов: 0)
Поблагодарили: 1
Поделиться ссылкой на эту раздачу с друзьями:
В контактеFacebookОдноклассникиTwitterLivejournalМой МирLiveinternet
 

 
Показать сообщения:    


Вы не можете начинать темы
Вы не можете отвечать на сообщения
Вы не можете редактировать свои сообщения
Вы не можете удалять свои сообщения
Вы не можете голосовать в опросах
Вы не можете прикреплять файлы к сообщениям
Вы можете скачивать файлы