Loading...
Error

Скачать Невероятное путешествие / Путешествие через невозможное / Le voyage ђ travers limpossible (Жорж Мельес) [1904 , Немое кино, короткометражка, фантастика, приключения , DVDRip] [Немое кино] торрент без регистрации

 
Статистика раздачи
Размер:  253 MB   |    Скачан:  144 раза
Сидов:  1  [  0 KB/s  ]  
 
Автор Сообщение

leon030982

[] 

[i]Невероятное путешествие
Путешествие через невозможное
Le voyage ђ travers limpossible

Страна: Франция
Жанр: Немое кино, короткометражка, фантастика, приключения
Год выпуска: 1904
Продолжительность: 00:20:16
Перевод: Не требуется
Субтитры: Нет
Доп. информация: В фильме присутствуют закадровые комментарии на английском и музыкальное сопровождение

Режиссёр: Жорж Мельес / Georges M™li�s
В ролях: Жорж Мельес

Описание фильма:
Профессор Мабулофф намерен принять участие в поездке вокруг Земли. Его первая попытка съехать со Швейцарских Альп на автомобиле заканчивается аварией, но затем Мабулофф погружает все необходимые для путешествия механизмы (в том числе подводную лодку) на специальный паровоз, который на дирижаблях поднимается в воздух и уносит путешественников в космос. Поезд влетает в рот зевающему Солнцу, которое выбрасывает его на Меркурий...



Качество: DVDRip
Формат: AVI
Видео: 640x464 (1.38:1), 29.970 fps, XviD MPEG-4, 1063 kbps avg, 0.18 bit/pixel
Аудио: 48 kHz, MPEG Layer 3, 2 ch, 128 kbps avg





Format : AVI
Format/Info : Audio Video Interleave
File size : 253 MiB
Duration : 20mn 15s
Overall bit rate : 1 743 Kbps
Writing application : VirtualDubMod 1.5.10.2 (build 2540/release)
Writing library : VirtualDub build 32817/release

Video
ID : 0
Format : MPEG-4 Visual
Format profile : Advanced Simple@L5
Format settings, BVOP : 2
Format settings, QPel : No
Format settings, GMC : No warppoints
Format settings, Matrix : Default (H.263)
Muxing mode : Packed bitstream
Codec ID : XVID
Codec ID/Hint : XviD
Duration : 20mn 15s
Bit rate : 1 603 Kbps
Width : 640 pixels
Height : 464 pixels
Display aspect ratio : 1.379
Frame rate : 29.970 fps
Color space : YUV
Chroma subsampling : 4:2:0
Bit depth : 8 bits
Scan type : Progressive
Compression mode : Lossy
Bits/(Pixel*Frame) : 0.180
Stream size : 232 MiB (92%)
Writing library : XviD 1.2.0.dev47 (UTC 2006-11-01)

Audio
ID : 1
Format : MPEG Audio
Format version : Version 1
Format profile : Layer 3
Mode : Joint stereo
Mode extension : MS Stereo
Codec ID : 55
Codec ID/Hint : MP3
Duration : 20mn 15s
Bit rate mode : Constant
Bit rate : 128 Kbps
Channel(s) : 2 channels
Sampling rate : 48.0 KHz
Compression mode : Lossy
Stream size : 18.5 MiB (7%)
Alignment : Aligned on interleaves
Interleave, duration : 33 ms (1.00 video frame)
Interleave, preload duration : 504 ms
Writing library : LAME3.90.3ґґґґґґґґґґ




Скачать Невероятное.путешествие.Путешествие.через.невозможное.Le.voyage.ђ.travers.limpossible.(Жорж.Мельес).[1904.Немое.кино.короткометражка.фантастика.приключения.DVDRip].[Немое.кино].torrent без регистрации
Золото ЗОЛОТАЯ РАЗДАЧА! СКАЧАННОЕ НЕ ЗАСЧИТЫВАЕТСЯ! Золото
Дата: Зарегистрирован   [ Тип: внутренний ] Как тут cкачать?
MAGNET ссылка
MAGNET ссылка


Скачать .torrent

20 KB

Статус: проверено DHT
Скачан: торрент - 144 раз, раздача полностью - 53 раз
Размер: 253 MB
Оценка:  - (Голосов: 0)
Поблагодарили: 1
Поделиться ссылкой на эту раздачу с друзьями:
В контактеFacebookОдноклассникиTwitterLivejournalМой МирLiveinternet
 

 
Показать сообщения:    


Вы не можете начинать темы
Вы не можете отвечать на сообщения
Вы не можете редактировать свои сообщения
Вы не можете удалять свои сообщения
Вы не можете голосовать в опросах
Вы не можете прикреплять файлы к сообщениям
Вы можете скачивать файлы