Loading...
Error

Скачать Лиллехаммер / Lilyhammer (сезон 01) ( Гер Хеннинг Хопланд, Симен Альсвик, Лиза Мари Гамлем) [2012, драма, комедия, криминал, HDRip-AVC] [MVO] [Лицензия] торрент без регистрации

 
Статистика раздачи
Размер:  4,36 GB   |    Скачан:  160 раз
Сидов:  1  [  0 KB/s  ]  
 
Автор Сообщение

МихаНЕзатор

[] 

Год выпуска: 2011
Выпущено: США, Норвегия / Rubicon TV AS

Жанр: драма, комедия, криминал
Продолжительность: ~ 00:45:00 / серия

Перевод: Профессиональный (многоголосый, закадровый) Первый канал
Оригинальная аудиодорожка: нет
Субтитры: нет

Режиссер: Гер Хеннинг Хопланд / Geir Henning Hopland, Симен Альсвик / Simen Alsvik, Лиза Мари Гамлем / Lisa Marie Gamlem

В ролях: Стив Ван Зандт, Мариан Саастад Оттесен, Тронд Фауса Аурвааг, Энн Кригсволл, Стейнар Саген, Микаэль Акснес-Персон, Свен Нордин, Фридтьов Сохейм, Кюрре Хеллум, Томми Карлсен...

Описание: Тальяно сдал своего босса федералам, и теперь, в рамках программы по защите свидетелей, он переезжает в Лиллехаммер, небольшой норвежский городок, когда-то приютивший зимние олимпийские игры. Сам Фрэнк называет его Лилихэммером, отсюда и название сериала. Фрэнк мечтает о рае с «чистым воздухом, белым снегом и клевыми телками», вдали от соблазнов Нью-Йорка и от карателей мафии. Реальность, конечно же, оказывается не такой, как мечты.

Качество: HDRip-AVC (BDRip 720p)
Формат: MKV

Видео: 800x450 (16:9), 25.000 fps, H264 ~ 1345 kbps avg, 0.149 bit/pixel
Аудио: 48 kHz, Dolby AC3 5.1 384 kbps, русский

АНОНСЫ ПОПУЛЯРНЫХ РАЗДАЧ

Релиз рассчитан для записи на одну болванку DVD5. Звук в данном релизе наконец-то нормальный шестиканальный АС3. Во всех предыдущих релизах звук двухканальный и убитый при прослушивании разница очень сильно чувствуется. Понизил оригинальный звук до 384 кбпс, поскольку качество исходного звука не выше соответствующего порога (18 кгц), что позволило оставить больше места для видео.

1. Reality Check / Проверка Реальности
2. The Flamingo / Фламинго
3. Guantanamo Blues / Блюз по Гуантанамо
4. The Midwife / Повитуха
5. My Kind of Town / Такой Город Мне По Вкусу
6. Pack Your Lederhosen / Пакуйте Кожаные Штаны
7. The Babysitter / Нянька
8. Trolls / Тролли

Общее
Полное имя : Lillehammer.s01.2011.P.HDRip-AVC_[Youtracker]_by_avproh1.mkv
Формат : Matroska
Версия формата : Version 4 / Version 2
Размер файла : 560 Мбайт
Продолжительность : 45 м.
Общий поток : 1729 Кбит/сек
Дата кодирования : UTC 2013-05-18 07:06:14
Программа кодирования : mkvmerge v6.1.0 ('Old Devil') built on Mar 2 2013 14:32:37
Библиотека кодирования : libebml v1.3.0 + libmatroska v1.4.0

Видео
Идентификатор : 1
Формат : AVC
Формат/Информация : Advanced Video Codec
Профиль формата : High@L4.1
Параметр CABAC формата : Да
Параметр ReFrames формата : 11 кадров
Идентификатор кодека : V_MPEG4/ISO/AVC
Продолжительность : 45 м.
Битрейт : 1345 Кбит/сек
Ширина : 800 пикселей
Высота : 450 пикселей
Соотношение сторон : 16:9
Режим частоты кадров : Постоянный
Частота кадров : 25,000 кадров/сек
Цветовое пространство : YUV
Субдискретизация насыщенности : 4:2:0
Битовая глубина : 8 бит
Тип развёртки : Прогрессивная
Бит/(Пиксели*Кадры) : 0.149
Размер потока : 424 Мбайт (76%)
Библиотека кодирования : x264 core 130 r2273 b3065e6
Настройки программы : cabac=1 / ref=11 / deblock=1:-2:-1 / analyse=0x3:0x113 / me=umh / subme=9 / psy=1 / psy_rd=1.00:0.10 / mixed_ref=1 / me_range=32 / chroma_me=1 / trellis=2 / 8x8dct=1 / cqm=0 / deadzone=21,11 / fast_pskip=1 / chroma_qp_offset=-3 / threads=9 / lookahead_threads=2 / sliced_threads=0 / nr=0 / decimate=1 / interlaced=0 / bluray_compat=0 / constrained_intra=0 / bframes=11 / b_pyramid=2 / b_adapt=2 / b_bias=0 / direct=3 / weightb=1 / open_gop=0 / weightp=2 / keyint=250 / keyint_min=25 / scenecut=40 / intra_refresh=0 / rc_lookahead=80 / rc=2pass / mbtree=1 / bitrate=1345 / ratetol=1.0 / qcomp=0.60 / qpmin=0 / qpmax=69 / qpstep=4 / cplxblur=20.0 / qblur=0.5 / ip_ratio=1.40 / aq=2:0.90
Язык : English
Default : Да
Forced : Нет

Аудио
Идентификатор : 2
Формат : AC-3
Формат/Информация : Audio Coding 3
Расширение режима : CM (complete main)
Параметр Endianness формата : Big
Идентификатор кодека : A_AC3
Продолжительность : 45 м.
Вид битрейта : Постоянный
Битрейт : 384 Кбит/сек
Каналы : 6 каналов
Расположение каналов : Front: L C R, Side: L R, LFE
Частота : 48,0 КГц
Битовая глубина : 16 бит
Метод сжатия : С потерями
Размер потока : 124 Мбайт (22%)
Язык : Russian
Default : Да
Forced : Нет



Скачать Лиллехаммер.Lilyhammer.(сезон.01).(.Гер.Хеннинг.Хопланд.Симен.Альсвик.Лиза.Мари.Гамлем).[2012.драма.комедия.криминал.HDRip-AVC].[MVO].[Лицензия].torrent без регистрации
Золото ЗОЛОТАЯ РАЗДАЧА! СКАЧАННОЕ НЕ ЗАСЧИТЫВАЕТСЯ! Золото
Дата: Зарегистрирован   [ Тип: внутренний ] Как тут cкачать?
MAGNET ссылка
MAGNET ссылка


Скачать .torrent

23 KB

Статус: проверено DHT
Скачан: торрент - 160 раз, раздача полностью - 135 раз
Размер: 4,36 GB
Оценка:  - (Голосов: 0)
Поблагодарили: 2
Поделиться ссылкой на эту раздачу с друзьями:
В контактеFacebookОдноклассникиTwitterLivejournalМой МирLiveinternet
 

 
Показать сообщения:    


Вы не можете начинать темы
Вы не можете отвечать на сообщения
Вы не можете редактировать свои сообщения
Вы не можете удалять свои сообщения
Вы не можете голосовать в опросах
Вы не можете прикреплять файлы к сообщениям
Вы можете скачивать файлы