Loading...
Error

/ Band of Brothers ( 1-10 10) ( , ) [2001, , , BDRip] [1080p] [MVO] () + [MVO] (5 ) + [DVO] ( ) + [DVO] ( ) + [VO] ()

 
91,86 GB   |    :  377
1  [  0 KB/s  ]  
 

leon030982

[] 

/ Band of Brothers
[The Complete Collection]

. .
: 2001
: ,
: , , , ,
: ~60 ()

1: []
2: [ (5 )]
3: [. .]
4: [ ]
5: [.]

: English, Russian

: : ,

: , , , , , , , , ,

: E (Easy) 2- 506- - 101- - , , , .
(Stephen Ambrose, 19362002), , , (Dwight D. Eisenhower, 18901969) (Richard Nixon, 19131994). , . , , ...



: by Volshebnik & vlaluk & Viraha94 : BDRip 1080p [ EbP!]
: Band of Brothers 2001 1080p Blu-ray JPN AVC DTS-HD MA 5.1
: MKV
: AVC
: DTS-HD / AC3
1- (Currahee)
2- (Day of Days)
3- (Carentan)
4- (Replacements)
5- (Crossroads)
6- (Bastogne)
7- (The Breaking Point)
8- (The Last Patrol)
9- ? (Why We Fight)
10- (Points)
Blu-ray.
3,5 DTS-HD MA. vlaluk Volshebnik.
aka Logan, VHS .



VHS - Lizing48.
3 Lizing48.
, ..
small_pipi SolarOlya, 5 .
- Lizing48.

: 1920x1080 at 23.976 fps, [url=mailto:x264@L4.1]x264@L4.1[/url], crf, ~13 500 kbps avg
1: AC3, 48 kHz, 2/0 (L,R) ch, ~384 kbps avg [Russian] | , |
2: AC3, 48 kHz, 2/0 (L,R) ch, ~192 kbps avg [Russian] | , (5 )|
3: DTS, 48 kHz, 3/2 (L,C,R,l,r) + LFE ch, ~1509 kbps avg [Russian] | , . .|
4: AC3, 48 kHz, 3/2 (L,C,R,l,r) + LFE ch, ~448 kbps avg [Russian] | , |
5: DTS, 48 kHz, 3/2 (L,C,R,l,r) + LFE ch, ~1509 kbps avg [Russian] | , .|
6: DTS, 48 kHz, 3/2 (L,C,R,l,r) + LFE ch, ~1509 kbps avg [English]
- , .
2,000 .
700 400 .
14,000 .
, , .
, (1998), . , . 405 , , .
. .
(), 11 , 4,86 .
, (1998).
Corcoran Boot Co 500 .
2,000 .
1,200 , .
, , , .
500 , .
. , , .
150,000 , . , .
$17 .
, , .
, .
4,500 .
445 .
V .
, , . , , . , , .
. , .
, 1948 . , 1967 - .
, , .
Empire 41 50 .

:

General
Unique ID : 201110496474901800664194929361822182144 (0x974C7904C738C8CC8AB41C5FDC146B00)
Complete name : Band.of.Brothers.E01.1080p.BDRip.5xRus.Eng.HDCLUB.mkv
Format : Matroska
Format version : Version 2
File size : 9.90 GiB
Duration : 1h 13mn
Overall bit rate : 19.4 Mbps
Encoded date : UTC 2011-12-11 14:40:43
Writing application : mkvmerge v5.1.0 ('And so it goes') built on Nov 28 2011 23:58:28
Writing library : libebml v1.2.3 + libmatroska v1.3.0

Video
ID : 1
Format : AVC
Format/Info : Advanced Video Codec
Format profile : [url=mailto:High@L4.1]High@L4.1[/url]
Format settings, CABAC : Yes
Format settings, ReFrames : 4 frames
Codec ID : V_MPEG4/ISO/AVC
Duration : 1h 13mn
Bit rate : 13.4 Mbps
Width : 1 920 pixels
Height : 1 080 pixels
Display aspect ratio : 16:9
Frame rate : 23.976 fps
Color space : YUV
Chroma subsampling : 4:2:0
Bit depth : 8 bits
Scan type : Progressive
Bits/(Pixel*Frame) : 0.270
Stream size : 6.86 GiB (69%)
Title : Band of Brothers E01 2001 1080p BluRay x264-EbP
Writing library : x264 core 114 r1900 60ef1f8
Encoding settings : cabac=1 / ref=4 / deblock=1:-3:-3 / analyse=0x3:0x133 / me=umh / subme=10 / psy=1 / psy_rd=1.20:0.00 / mixed_ref=1 / me_range=64 / chroma_me=1 / trellis=2 / 8x8dct=1 / cqm=0 / deadzone=21,11 / fast_pskip=0 / chroma_qp_offset=-2 / threads=18 / sliced_threads=0 / nr=0 / decimate=0 / interlaced=0 / constrained_intra=0 / bframes=9 / b_pyramid=2 / b_adapt=2 / b_bias=0 / direct=3 / weightb=1 / open_gop=0 / weightp=2 / keyint=250 / keyint_min=23 / scenecut=40 / intra_refresh=0 / rc_lookahead=80 / rc=crf / mbtree=1 / crf=19.0 / qcomp=0.60 / qpmin=0 / qpmax=51 / qpstep=4 / ip_ratio=1.40 / aq=2:0.50
Language : English

Audio #1
ID : 2
Format : AC-3
Format/Info : Audio Coding 3
Mode extension : CM (complete main)
Codec ID : A_AC3
Duration : 1h 13mn
Bit rate mode : Constant
Bit rate : 384 Kbps
Channel(s) : 2 channels
Channel positions : Front: L R
Sampling rate : 48.0 KHz
Bit depth : 16 bits
Compression mode : Lossy
Stream size : 201 MiB (2%)
Title : AC3 2.0 @ 384 kbps - ,
Language : Russian

Audio #2
ID : 3
Format : AC-3
Format/Info : Audio Coding 3
Mode extension : CM (complete main)
Codec ID : A_AC3
Duration : 1h 13mn
Bit rate mode : Constant
Bit rate : 192 Kbps
Channel(s) : 2 channels
Channel positions : Front: L R
Sampling rate : 48.0 KHz
Bit depth : 16 bits
Compression mode : Lossy
Stream size : 101 MiB (1%)
Title : AC3 2.0 @ 192 kbps - , (5 )
Language : Russian

Audio #3
ID : 4
Format : DTS
Format/Info : Digital Theater Systems
Codec ID : A_DTS
Duration : 1h 13mn
Bit rate mode : Constant
Bit rate : 1 510 Kbps
Channel(s) : 6 channels
Channel positions : Front: L C R, Side: L R, LFE
Sampling rate : 48.0 KHz
Bit depth : 24 bits
Compression mode : Lossy
Stream size : 791 MiB (8%)
Title : DTS 5.1 @ 1509 kbps - , . .
Language : Russian

Audio #4
ID : 5
Format : AC-3
Format/Info : Audio Coding 3
Mode extension : CM (complete main)
Codec ID : A_AC3
Duration : 1h 13mn
Bit rate mode : Constant
Bit rate : 448 Kbps
Channel(s) : 6 channels
Channel positions : Front: L C R, Side: L R, LFE
Sampling rate : 48.0 KHz
Bit depth : 16 bits
Compression mode : Lossy
Stream size : 235 MiB (2%)
Title : AC3 5.1 @ 448 kbps - ,
Language : Russian

Audio #5
ID : 6
Format : DTS
Format/Info : Digital Theater Systems
Codec ID : A_DTS
Duration : 1h 13mn
Bit rate mode : Constant
Bit rate : 1 510 Kbps
Channel(s) : 6 channels
Channel positions : Front: L C R, Side: L R, LFE
Sampling rate : 48.0 KHz
Bit depth : 24 bits
Compression mode : Lossy
Stream size : 791 MiB (8%)
Title : DTS 5.1 @ 1509 kbps - , .
Language : Russian

Audio #6
ID : 7
Format : DTS
Format/Info : Digital Theater Systems
Codec ID : A_DTS
Duration : 1h 13mn
Bit rate mode : Constant
Bit rate : 1 510 Kbps
Channel(s) : 6 channels
Channel positions : Front: L C R, Side: L R, LFE
Sampling rate : 48.0 KHz
Bit depth : 16 bits
Compression mode : Lossy
Stream size : 791 MiB (8%)
Title : DTS 5.1 @ 1536 kbps
Language : English

Text #1
ID : 8
Format : UTF-8
Codec ID : S_TEXT/UTF8
Codec ID/Info : UTF-8 Plain Text
Language : Russian

Text #2
ID : 9
Format : UTF-8
Codec ID : S_TEXT/UTF8
Codec ID/Info : UTF-8 Plain Text
Language : English

Menu
00:00:00.000 : en:00:00:00.000
00:01:40.100 : en:00:01:40.100
00:04:03.743 : en:00:04:03.743
00:08:25.505 : en:00:08:25.505
00:23:43.631 : en:00:23:43.631
00:28:11.106 : en:00:28:11.106
00:33:34.846 : en:00:33:34.846
00:36:21.805 : en:00:36:21.805
00:52:15.132 : en:00:52:15.132
01:01:58.214 : en:01:01:58.214
01:10:06.202 : en:01:10:06.202
 
Source vs Encode




...Band.of.Brothers.(.1-10..10).(...).[2001...BDRip].[1080p].[MVO].().+.[MVO].(5.).+.[DVO].(..).+.[DVO].(..).+.[VO].().torrent
  ! ! 
:   [ : ] c?
MAGNET
MAGNET


.torrent

461 KB

: DHT
: - 377 , - 99
: 91,86 GB
- (: 0)
: 1
:
 FacebookTwitterLivejournal Liveinternet
 

 
: