Loading...
Error

Скачать Нищий студент / Der Bettelstudent (Георг Якоби) [1936, мюзикл, DVDRip] [VO] торрент без регистрации

 
Статистика раздачи
Размер:  1,37 GB   |    Скачан:  140 раз
Сидов:  1  [  0 KB/s  ]  
 
Автор Сообщение

Marsianka

[] 

Информация о фильме
Название: Нищий студент
Оригинальное название: Der Bettelstudent
Год выхода: 1936
Жанр: мюзикл
Режиссер: Георг Якоби / Georg Jacoby
В ролях: Марика Рекк /Marika R¦kk/, Фриц Камперс /Fritz Kampers/, Гарри Хардт /Harry Hardt/, Ида Вюст /Ida W¬st/, Карола Хон /Carola H¦hn/, Бертхольд Эббек /Berthold Ebbecke/, Йоханн Хистерс /Johannes Heesters/, Эрнст Бемер /Ernst Behmer/

О фильме:
Польша. В 1704 году в занятом саксонцами Кракове введены новые порядки и комендантский час. Но ясный, жизнерадостный город нельзя победить. Всюду звенит музыка, люди танцуют и веселятся, не признавая новый режим.

Среди этого небезопасного веселья встречаются «нищий студент Симон», который на самом деле является герцогом Польши и польская графиня Бронислава. Молодые люди находят свою большую любовь, пройдя через опасности, заговоры и интриги.



Страна: Германия
Студия: UFA, Herstellungsgruppe, Max Pfeiffer
Продолжительность: 01:29:16
Перевод: Любительский (одноголосый, закадровый) / Оригинал (немецкий)

Файл
Кодек: XviD / MP3
Качество: DVDRip
Видео: XviD, 672x496 (4:3), 25.000 fps, 1 920 Kbps (0.230 bit/pixel)
Звук:
Аудио #1: MP3, 48.0 KHz, 2 ch, 128 Kbps, CBR [rus]
Аудио #2: MP3, 48.0 KHz, 2 ch, 128 Kbps, CBR [ger]

Семпл
General
Complete name : E:Nischij.student.1936.XviD.DVDRip-finixclub.avi
Format : AVI
Format/Info : Audio Video Interleave
File size : 1.37 GiB
Duration : 1h 29mn
Overall bit rate : 2 191 Kbps
Writing application : VirtualDubMod 1.5.10.1 Рус от Stvens Inc. www.stvens.amillo.net (build 2366/release)
Writing library : VirtualDubMod build 2366/release

Video
ID : 0
Format : MPEG-4 Visual
Format profile : Advanced Simple@L5
Format settings, BVOP : 2
Format settings, QPel : No
Format settings, GMC : No warppoints
Format settings, Matrix : Default (MPEG)
Muxing mode : Packed bitstream
Codec ID : XVID
Codec ID/Hint : XviD
Duration : 1h 29mn
Bit rate : 1 920 Kbps
Width : 672 pixels
Height : 496 pixels
Display aspect ratio : 4:3
Frame rate : 25.000 fps
Color space : YUV
Chroma subsampling : 4:2:0
Bit depth : 8 bits
Scan type : Progressive
Compression mode : Lossy
Bits/(Pixel*Frame) : 0.230
Stream size : 1.20 GiB (88%)
Writing library : XviD 1.1.2 (UTC 2006-11-01)

Audio #1
ID : 1
Format : MPEG Audio
Format version : Version 1
Format profile : Layer 3
Mode : Joint stereo
Mode extension : MS Stereo
Codec ID : 55
Codec ID/Hint : MP3
Duration : 1h 29mn
Bit rate mode : Constant
Bit rate : 128 Kbps
Channel(s) : 2 channels
Sampling rate : 48.0 KHz
Compression mode : Lossy
Stream size : 81.7 MiB (6%)
Alignment : Aligned on interleaves
Interleave, duration : 40 ms (1.00 video frame)
Interleave, preload duration : 504 ms

Audio #2
ID : 2
Format : MPEG Audio
Format version : Version 1
Format profile : Layer 3
Mode : Joint stereo
Mode extension : MS Stereo
Codec ID : 55
Codec ID/Hint : MP3
Duration : 1h 29mn
Bit rate mode : Constant
Bit rate : 128 Kbps
Channel(s) : 2 channels
Sampling rate : 48.0 KHz
Compression mode : Lossy
Stream size : 81.7 MiB (6%)
Alignment : Aligned on interleaves
Interleave, duration : 40 ms (1.00 video frame)
Interleave, preload duration : 504 ms



Скачать Нищий.студент.Der.Bettelstudent.(Георг.Якоби).[1936.мюзикл.DVDRip].[VO].torrent без регистрации
Золото ЗОЛОТАЯ РАЗДАЧА! СКАЧАННОЕ НЕ ЗАСЧИТЫВАЕТСЯ! Золото
Дата: Зарегистрирован   [ Тип: внутренний ] Как тут cкачать?
MAGNET ссылка
MAGNET ссылка


Скачать .torrent

14 KB

Статус: проверено DHT
Скачан: торрент - 140 раз, раздача полностью - 3 раз
Размер: 1,37 GB
Оценка:  - (Голосов: 0)
Поблагодарили: 1
Поделиться ссылкой на эту раздачу с друзьями:
В контактеFacebookОдноклассникиTwitterLivejournalМой МирLiveinternet
 

 
Показать сообщения:    


Вы не можете начинать темы
Вы не можете отвечать на сообщения
Вы не можете редактировать свои сообщения
Вы не можете удалять свои сообщения
Вы не можете голосовать в опросах
Вы не можете прикреплять файлы к сообщениям
Вы можете скачивать файлы