Loading...
Error

Скачать Чернокнижник / Warlock (Стив Майнер) [1989, фэнтези, триллер, приключения, BDRip] [AVC] [MVO] торрент без регистрации

 
Статистика раздачи
Размер:  2,18 GB   |    Скачан:  138 раз
Сидов:  1  [  0 KB/s  ]  
 
Автор Сообщение

Marsianka

[] 

Чернокнижник / Warlock (1989) BDRip-AVC от PowerTracker

Жанр: фэнтези, триллер, приключения
Страна: США
Режиссер: Стив Майнер
В ролях: Джулиан Сэндс, Лори Сингер, Ричард Э. Грант, Мэри Воронов, Кевин ОБрайэн, Ричард Касс, Аллан Миллер, Анна Левайн-Томпсон, Дэвид Карпентер, Кей Катер

Сюжет фильма: В 1691 году в городе Бостон чернокнижник был приговорен к смерти, однако перенесся в 80-е XX века, где ему необходимо найти три части «Библии Дьявола» и передать мир во власть Люцифера. Ему пытается помешать охотник на колдунов Джайлз Редферн, чья невеста погибла, став жертвой козней чернокнижника. Он объединяется с девушкой, которою колдун заколдовал каждый день стареть на двадцать лет, после чего они отправляются в погоню за злодеем, чтобы остановить его до того, как он достигнет своей цели.

Мировая премьера: 1 июня 1989



Продолжительность: 1:46:07
Качество видео: BDRip-AVC
Видео: кодек: x264, размер кадра: 1024x554, битрейт: 2121 кб/с, bit/pixel: 0.156
Аудио #1: язык: Русский , перевод: профессиональный многоголосый закадровый , кодек: AC3 2.0, битрейт: 192.00 кб/с
Аудио #2: язык: Украинский , перевод: профессиональный многоголосый закадровый , кодек: AC3 5.1, битрейт: 384.00 кб/с
Аудио #3: язык: Английский , перевод: оригинал, кодек: AC3 2.0, битрейт: 192.00 кб/с

&
Общее
Уникальный идентификатор : 191071269659849292408269033955048880665 (0x8FBEFCEBEDF6DE98A662D9B10A14FA19)
Полное имя : D:Warlock.1989.BDRip-AVC.PT.mkv
Формат : Matroska
Версия формата : Version 2
Размер файла : 2,18 Гбайт
Продолжительность : 1 ч. 46 м.
Общий поток : 2947 Кбит/сек
Название фильма : Чернокнижник / Warlock (1989) BDRip-AVC rip by rulya74
Дата кодирования : UTC 2012-02-09 09:23:35
Программа кодирования : mkvmerge v5.2.1 ('A Far Off Place') built on Jan 2 2012 23:21:10
Библиотека кодирования : libebml v1.2.3 + libmatroska v1.3.0

Видео
Идентификатор : 1
Формат : AVC
Формат/Информация : Advanced Video Codec
Профиль формата : High@L4.1
Параметр CABAC формата : Да
Параметр ReFrames формата : 10 кадров
Идентификатор кодека : V_MPEG4/ISO/AVC
Продолжительность : 1 ч. 46 м.
Битрейт : 2121 Кбит/сек
Номинальный битрейт : 2250 Кбит/сек
Ширина : 1024 пикселя
Высота : 554 пикселя
Соотношение сторон : 16:9
Частота кадров : 23,976 кадра/сек
Цветовое пространство : YUV
Субдискретизация насыщенности : 4:2:0
Битовая глубина : 8 бит
Тип развёртки : Прогрессивная
Бит/(Пиксели*Кадры) : 0.156
Размер потока : 1,57 Гбайт (72%)
Библиотека кодирования : x264 core 120 r2146 bcd41db
Настройки программы : cabac=1 / ref=10 / deblock=1:-3:-3 / analyse=0x3:0x113 / me=umh / subme=9 / psy=1 / psy_rd=1.00:0.00 / mixed_ref=1 / me_range=32 / chroma_me=1 / trellis=2 / 8x8dct=1 / cqm=0 / deadzone=21,11 / fast_pskip=1 / chroma_qp_offset=-2 / threads=3 / sliced_threads=0 / nr=0 / decimate=1 / interlaced=0 / bluray_compat=0 / constrained_intra=0 / bframes=8 / b_pyramid=2 / b_adapt=2 / b_bias=0 / direct=3 / weightb=1 / open_gop=0 / weightp=2 / keyint=240 / keyint_min=22 / scenecut=40 / intra_refresh=0 / rc=2pass / mbtree=0 / bitrate=2250 / ratetol=1.0 / qcomp=0.60 / qpmin=10 / qpmax=51 / qpstep=4 / cplxblur=20.0 / qblur=0.5 / ip_ratio=1.40 / pb_ratio=1.30 / aq=1:1.00
Default : Да
Forced : Нет

Аудио #1
Идентификатор : 2
Формат : AC-3
Формат/Информация : Audio Coding 3
Расширение режима : CM (complete main)
Идентификатор кодека : A_AC3
Продолжительность : 1 ч. 46 м.
Вид битрейта : Постоянный
Битрейт : 192 Кбит/сек
Каналы : 2 канала
Расположение каналов : Front: L R
Частота : 48,0 КГц
Битовая глубина : 16 бит
Метод сжатия : С потерями
Размер потока : 146 Мбайт (7%)
Заголовок : MVO (ОРТ)
Язык : Russian
Default : Да
Forced : Нет

Аудио #2
Идентификатор : 3
Формат : AC-3
Формат/Информация : Audio Coding 3
Расширение режима : CM (complete main)
Идентификатор кодека : A_AC3
Продолжительность : 1 ч. 46 м.
Вид битрейта : Постоянный
Битрейт : 384 Кбит/сек
Каналы : 2 канала
Расположение каналов : Front: L R
Частота : 48,0 КГц
Битовая глубина : 16 бит
Метод сжатия : С потерями
Размер потока : 291 Мбайт (13%)
Заголовок : MVO (Новый канал)
Язык : Ukrainian
Default : Нет
Forced : Нет

Аудио #3
Идентификатор : 4
Формат : AC-3
Формат/Информация : Audio Coding 3
Расширение режима : CM (complete main)
Идентификатор кодека : A_AC3
Продолжительность : 1 ч. 46 м.
Вид битрейта : Постоянный
Битрейт : 192 Кбит/сек
Каналы : 2 канала
Расположение каналов : Front: L R
Частота : 48,0 КГц
Битовая глубина : 16 бит
Метод сжатия : С потерями
Размер потока : 146 Мбайт (7%)
Заголовок : Original
Язык : English
Default : Нет
Forced : Нет

Меню
00:00:00.000 : :Chapter 01
00:08:24.377 : :Chapter 02
00:17:57.242 : :Chapter 03
00:28:02.389 : :Chapter 04
00:35:42.390 : :Chapter 05
00:44:23.452 : :Chapter 06
00:55:50.013 : :Chapter 07
01:03:12.497 : :Chapter 08
01:11:49.013 : :Chapter 09
01:24:11.463 : :Chapter 10
01:32:18.783 : :Chapter 11
01:37:37.350 : :Chapter 12
01:43:12.561 : :Chapter 13



Скачать Чернокнижник.Warlock.(Стив.Майнер).[1989.фэнтези.триллер.приключения.BDRip].[AVC].[MVO].torrent без регистрации
Золото ЗОЛОТАЯ РАЗДАЧА! СКАЧАННОЕ НЕ ЗАСЧИТЫВАЕТСЯ! Золото
Дата: Зарегистрирован   [ Тип: внутренний ] Как тут cкачать?
MAGNET ссылка
MAGNET ссылка


Скачать .torrent

11 KB

Статус: проверено DHT
Скачан: торрент - 138 раз, раздача полностью - 22 раз
Размер: 2,18 GB
Оценка:  - (Голосов: 0)
Поблагодарили: 3
Поделиться ссылкой на эту раздачу с друзьями:
В контактеFacebookОдноклассникиTwitterLivejournalМой МирLiveinternet
 

 
Показать сообщения:    


Вы не можете начинать темы
Вы не можете отвечать на сообщения
Вы не можете редактировать свои сообщения
Вы не можете удалять свои сообщения
Вы не можете голосовать в опросах
Вы не можете прикреплять файлы к сообщениям
Вы можете скачивать файлы