Loading...
Error

Скачать Декан Спэнли / Dean Spanley (Тоа Фрайзер) [2008, драма, комедия, BDRip] [AVC] [MVO] торрент без регистрации

 
Статистика раздачи
Размер:  1,45 GB   |    Скачан:  110 раз
Сидов:  1  [  0 KB/s  ]  
 
Автор Сообщение

Marsianka

[] 

Декан Спэнли / Dean Spanley (2008) BDRip-AVC от PowerTracker

Жанр: драма, комедия
Страна: Великобритания , Новая Зеландия
Режиссер: Тоа Фрайзер
В ролях: Джереми Нортэм, Сэм Нил, Брайан Браун, Питер ОТул, Анджела Клеркин, Elizabeth Goram-Smith, Шарлотта Грэхэм, Брюс Хопкинс, Арт Малик, Мириама Макдауэлл, Джуди Парфитт, Ева Сайер, Ник Шоу, Дадли Саттон, Рамон Тикарам

Сюжет фильма: Англия, 1904 год. Хенслав Фиск и его больной отец Горацио решают пойти на лекцию по реинкарнации, которая называется «Переселение Душ&raquo. Там они встречают Дина Спэнли. Позже сталкиваясь с ним в клубе своего отца, а затем у входа в собор, Хенслав думает, что это больше чем совпадение и решает пригласить его на обед, соблазняя обещанием угостить его любимым Токайским вином. В итоге на обеде, после вина Дин начинает рассказывать странные воспоминания своей прошлой жизни

Мировая премьера: 6 сентября 2008





Продолжительность: 01:39:55
Качество видео: BDRip-AVC
Видео: кодек: x264, размер кадра: 1024x576, битрейт: 1730 кб/с, bit/pixel: 0.122
Аудио #1: язык: Русский , перевод: многоголосый закадровый (ТНТ), кодек: AC3 2.0, битрейт: 192.00 кб/с
Аудио #2: язык: Английский , перевод: оригинал, кодек: AC3 2.0, битрейт: 160.00 кб/с
Субтитры: тип: вшитые отключаемые, формат: ASS, язык: Английский
&
Общее
Уникальный идентификатор : 176616151358143044462462223311108934823 (0x84DF089097B303A4BAEE4A0682858CA7)
Полное имя : D:Dean Spanley.2008.BDRip-AVC.PT.mkv
Формат : Matroska
Версия формата : Version 2
Размер файла : 1,45 Гбайт
Продолжительность : 1 ч. 39 м.
Общий поток : 2083 Кбит/сек
Название фильма : Декан Спэнли / Dean Spanley (2008) BDRip-AVC rip by rulya74
Дата кодирования : UTC 2012-02-10 05:52:50
Программа кодирования : mkvmerge v5.2.1 ('A Far Off Place') built on Jan 2 2012 23:21:10
Библиотека кодирования : libebml v1.2.3 + libmatroska v1.3.0

Видео
Идентификатор : 1
Формат : AVC
Формат/Информация : Advanced Video Codec
Профиль формата : High@L4.1
Параметр CABAC формата : Да
Параметр ReFrames формата : 11 кадров
Идентификатор кодека : V_MPEG4/ISO/AVC
Продолжительность : 1 ч. 39 м.
Битрейт : 1730 Кбит/сек
Ширина : 1024 пикселя
Высота : 576 пикселей
Соотношение сторон : 16:9
Частота кадров : 24,000 кадра/сек
Цветовое пространство : YUV
Субдискретизация насыщенности : 4:2:0
Битовая глубина : 8 бит
Тип развёртки : Прогрессивная
Бит/(Пиксели*Кадры) : 0.122
Размер потока : 1,18 Гбайт (81%)
Библиотека кодирования : x264 core 120 r2146 bcd41db
Настройки программы : cabac=1 / ref=11 / deblock=1:-1:-1 / analyse=0x3:0x113 / me=umh / subme=9 / psy=1 / psy_rd=1.00:0.00 / mixed_ref=1 / me_range=32 / chroma_me=1 / trellis=2 / 8x8dct=1 / cqm=0 / deadzone=21,11 / fast_pskip=1 / chroma_qp_offset=-2 / threads=3 / sliced_threads=0 / nr=0 / decimate=1 / interlaced=0 / bluray_compat=0 / constrained_intra=0 / bframes=10 / b_pyramid=2 / b_adapt=2 / b_bias=0 / direct=3 / weightb=1 / open_gop=0 / weightp=2 / keyint=240 / keyint_min=22 / scenecut=40 / intra_refresh=0 / rc=2pass / mbtree=0 / bitrate=1730 / ratetol=1.0 / qcomp=0.60 / qpmin=10 / qpmax=51 / qpstep=4 / cplxblur=20.0 / qblur=0.5 / ip_ratio=1.40 / pb_ratio=1.30 / aq=1:1.00
Default : Да
Forced : Нет

Аудио #1
Идентификатор : 2
Формат : AC-3
Формат/Информация : Audio Coding 3
Расширение режима : CM (complete main)
Идентификатор кодека : A_AC3
Продолжительность : 1 ч. 39 м.
Вид битрейта : Постоянный
Битрейт : 192 Кбит/сек
Каналы : 2 канала
Расположение каналов : Front: L R
Частота : 48,0 КГц
Битовая глубина : 16 бит
Метод сжатия : С потерями
Размер потока : 137 Мбайт (9%)
Заголовок : MVO (ТНТ)
Язык : Russian
Default : Да
Forced : Нет

Аудио #2
Идентификатор : 3
Формат : AC-3
Формат/Информация : Audio Coding 3
Расширение режима : CM (complete main)
Идентификатор кодека : A_AC3
Продолжительность : 1 ч. 39 м.
Вид битрейта : Постоянный
Битрейт : 160 Кбит/сек
Каналы : 2 канала
Расположение каналов : Front: L R
Частота : 48,0 КГц
Битовая глубина : 16 бит
Метод сжатия : С потерями
Размер потока : 114 Мбайт (8%)
Заголовок : Original
Язык : English
Default : Нет
Forced : Нет

Текст
Идентификатор : 4
Формат : ASS
Идентификатор кодека : S_TEXT/ASS
Идентификатор кодека/Информация : Advanced Sub Station Alpha
Метод сжатия : Без потерь
Язык : English
Default : Нет
Forced : Нет



Скачать Декан.Спэнли.Dean.Spanley.(Тоа.Фрайзер).[2008.драма.комедия.BDRip].[AVC].[MVO].torrent без регистрации
Золото ЗОЛОТАЯ РАЗДАЧА! СКАЧАННОЕ НЕ ЗАСЧИТЫВАЕТСЯ! Золото
Дата: Зарегистрирован   [ Тип: внутренний ] Как тут cкачать?
MAGNET ссылка
MAGNET ссылка


Скачать .torrent

15 KB

Статус: проверено DHT
Скачан: торрент - 110 раз, раздача полностью - 36 раз
Размер: 1,45 GB
Оценка:  - (Голосов: 0)
Поблагодарили: 1
Поделиться ссылкой на эту раздачу с друзьями:
В контактеFacebookОдноклассникиTwitterLivejournalМой МирLiveinternet
 

 
Показать сообщения:    


Вы не можете начинать темы
Вы не можете отвечать на сообщения
Вы не можете редактировать свои сообщения
Вы не можете удалять свои сообщения
Вы не можете голосовать в опросах
Вы не можете прикреплять файлы к сообщениям
Вы можете скачивать файлы