Loading...
Error

Скачать Исповедь / The Confession (Серии 1-10 из 10) (Брэд Мирман) [2011, боевик, триллер, драма, WEB-DLRip] [NovaFilm] торрент без регистрации

 
Статистика раздачи
Размер:  678 MB   |    Скачан:  156 раз

Полного источника не было: 1 год 4 месяца

 
Автор Сообщение

Centner1

[] 


Исповедь / The Confession
Год выпуска: 2011
Страна: США
Жанр: боевик, триллер, драма
Продолжительность: ~60 минут
Перевод: Профессиональный (многоголосый, закадровый) - NovaFilm
Субтитры: Нет
Режиссёр: Брэд Мирман В ролях: Кифер Сазерленд, Джон Хёрт и др. Описание: Наёмный убийца ведёт теологические беседы со священником о том, почему его жертвы заслуживали смерти. Качество: WEB-DLRip
Формат: MP4
Видео кодек: H.264
Аудио кодек: AAC
Видео: 640x480 (16:9), 23.976 fps, ~1350 kbps, ~0.185 bit/pixel
Аудио Rus: 48 kHz, 2 ch, ~192 kbps |NovaFilm|
Озвучка: Никита Прозоровский, Кирилл Туранский, Александр Груздев, Дарья Бобылева

Перевод: Z Сэмпл / ImDB / Кинопоиск
Общее
Полное имя : F:\The.Confession.webdl.rus.novafilm.mp4
Формат : MPEG-4
Профиль формата : QuickTime
Идентификатор кодека : qt
Размер файла : 678 Мбайт
Продолжительность : 1 ч. 2 м.
Общий поток : 1519 Кбит/сек
Название фильма : The Confession
Дорожка/Положение : 1
Дорожка/Всего : 1
Исполнитель : Brad Mirman
Жанр : Drama
Дата записи : 2011
Дата кодирования : UTC 2012-02-10 18:38:25
Дата пометки : UTC 2012-02-10 18:38:49
Библиотека кодирования : Apple QuickTime 7.7.1
Обложка : Yes
com.apple.quicktime.player.movie : (Binary)
sonm : Confession

Видео
Идентификатор : 1
Формат : AVC
Формат/Информация : Advanced Video Codec
Профиль формата : [url=mailto:Baseline@L3.0]Baseline@L3.0[/url]
Параметр CABAC формата : Нет
Параметр ReFrames формата : 1 кадр
Идентификатор кодека : avc1
Идентификатор кодека/Информация : Advanced Video Coding
Продолжительность : 1 ч. 2 м.
Битрейт : 1363 Кбит/сек
Ширина : 640 пикс.
Высота : 480 пикс.
Соотношение сторон : 16:9
Режим частоты кадров : Постоянный
Частота кадров : 23,976 кадр/сек
Цветовое пространство : YUV
Подвыборка цветности : 4:2:0
Битовая глубина : 8 бит
Тип развёртки : Прогрессивная
Бит/(Пиксели*Кадры) : 0.185
Размер потока : 608 Мбайт (90%)
Заголовок : Обработчик видео Apple / Обработчик псевдонимов Apple
Дата кодирования : UTC 2012-02-09 18:30:30
Дата пометки : UTC 2012-02-10 18:38:49
Основные цвета : BT.601-6 525, BT.1358 525, BT.1700 NTSC, SMPTE 170M
Характеристики трансфера : BT.709-5, BT.1361
Коэффициенты матрицы : BT.601-6 525, BT.1358 525, BT.1700 NTSC, SMPTE 170M

Аудио
Идентификатор : 2
Формат : AAC
Формат/Информация : Advanced Audio Codec
Профиль формата : LC
Идентификатор кодека : 40
Продолжительность : 1 ч. 2 м.
Вид битрейта : Постоянный
Битрейт : 152 Кбит/сек
Номинальный битрейт : 192 Кбит/сек
Каналы : 2 канала
Расположение каналов : Front: L R
Частота : 48,0 КГц
Метод сжатия : С потерями
Размер потока : 68,0 Мбайт (10%)
Заголовок : Обработчик звука Apple / Обработчик псевдонимов Apple
Язык : English
Дата кодирования : UTC 2012-02-10 18:32:16
Дата пометки : UTC 2012-02-10 18:38:49
Material_Duration : 3744150
Material_StreamSize : 71285311



Скачать Исповедь.The.Confession.(Серии.1-10.из.10).(Брэд.Мирман).[2011.боевик.триллер.драма.WEB-DLRip].[NovaFilm].torrent без регистрации
Золото ЗОЛОТАЯ РАЗДАЧА! СКАЧАННОЕ НЕ ЗАСЧИТЫВАЕТСЯ! Золото
Дата: Зарегистрирован   [ Тип: внутренний ] Как тут cкачать?
MAGNET ссылка
MAGNET ссылка


Скачать .torrent

14 KB

Статус: # сомнительно
Скачан: торрент - 156 раз, раздача полностью - 33 раз
Размер: 678 MB
Оценка:  5 (Голосов: 1)
Поблагодарили: 3
Поделиться ссылкой на эту раздачу с друзьями:
В контактеFacebookОдноклассникиTwitterLivejournalМой МирLiveinternet
 

 

Centner1

[] 

MediaInfo

Полное имя : F:\The.Confession.webdl.rus.novafilm.mp4
Размер файла : 678 Мбайт
Продолжительность : 1 ч. 2 м.

Вроде верно все,но продолжительность интересная... ac
 
Показать сообщения:    


Вы не можете начинать темы
Вы не можете отвечать на сообщения
Вы не можете редактировать свои сообщения
Вы не можете удалять свои сообщения
Вы не можете голосовать в опросах
Вы не можете прикреплять файлы к сообщениям
Вы можете скачивать файлы