Loading...
Error

Скачать Рыжеволосая / Рыжая / Die Rote (Хельмут Койтнер) [1962, драма, DVDRip] [Sub] торрент без регистрации

 
Статистика раздачи
Размер:  1014 MB   |    Скачан:  138 раз
Сидов:  1  [  0 KB/s  ]  
 
Автор Сообщение

leon030982

[] 

Рыжеволосая / Рыжая / Die Rote
Страна: Германия, Италия
Жанр: драма
Год выпуска: 1962
Продолжительность: 01:30:29
Перевод: Субтитры (leoferre24)
Cубтитры: русские
Оригинальная аудиодорожка: немецкий
Режиссер: Хельмут Койтнер / Helmut Käutner
В ролях: Рут Льюверик /Ruth Leuwerik/, Герт Фрёбе /Gert Fröbe/, Россано Брацци /Rossano Brazzi/, Джорджио Альбертацци /Giorgio Albertazzi/, Ален Делон /Alain Delon/

Описание: Франциска в отчаянии бежит от своего прошлого. Покупая билет на поезд, она не догадывается, что ждет её по прибытии в Венецию. "Как печальна Венеция, когда мертва любовь", – пел Азнавур. Эта знаменитая строка мэтра могла бы стать эпиграфом к картине. Известный немецкий режиссер Хельмут Койтнер, как бы приоткрывает завесу переди миром, где кипят немалые страсти и проводит зрителя до самого края света. История беглянки переплетается с детективно-философским сюжетом об извечном противостоянии палача и жертвы. По прошествии 50 лет, "Рыжеволосая" поставленная по одноименному роману Альфреда Андерша, смотрится свежо и актуально. Главную роль в картине исполнила очень популярная тогда в ФРГ Рут Льюверик. Интересно, что Ален Делон сыграл здесь небольшую эпизодическую роль...

За перевод и субтитры спасибо - leoferre24
За рип спасибо - Fiona, alain delon ru
За корректировку субтитров спасибо - Светлана10

Сэмпл: DIE_ROTE_1962
Качество видео: DVDRip
Формат видео: AVI
Видео: XviD, 640x384, (1.667), 25.000 fps, 1460 kbps
Аудио: MP3, 48 kHz, 94 kbps, 1 ch, Original
Формат субтитров: softsub (SRT)
General
Complete name : die_rote.avi
Format : AVI
Format/Info : Audio Video Interleave
File size : 1 014 MiB
Duration : 1h 30mn
Overall bit rate mode : Variable
Overall bit rate : 1 567 Kbps
Video
ID : 0
Format : MPEG-4 Visual
Format profile : Advanced Simple@L5
Format settings, BVOP : 2
Format settings, QPel : No
Format settings, GMC : No warppoints
Format settings, Matrix : Default (MPEG)
Codec ID : XVID
Codec ID/Hint : XviD
Duration : 1h 30mn
Bit rate : 1 460 Kbps
Width : 640 pixels
Height : 384 pixels
Display aspect ratio : 1.667
Frame rate : 25.000 fps
Color space : YUV
Chroma subsampling : 4:2:0
Bit depth : 8 bits
Scan type : Progressive
Compression mode : Lossy
Bits/(Pixel*Frame) : 0.238
Stream size : 945 MiB (93%)
Writing library : XviD 1.2.1 (UTC 2008-12-04)
Audio
ID : 1
Format : MPEG Audio
Format version : Version 1
Format profile : Layer 3
Codec ID : 55
Codec ID/Hint : MP3
Duration : 1h 30mn
Bit rate mode : Variable
Bit rate : 94.0 Kbps
Minimum bit rate : 32.0 Kbps
Channel(s) : 1 channel
Sampling rate : 48.0 KHz
Compression mode : Lossy
Stream size : 60.9 MiB (6%)
Alignment : Aligned on interleaves
Interleave, duration : 24 ms (0.60 video frame)
Interleave, preload duration : 434 ms
Writing library : LAME3.98r
Encoding settings : -m m -V 3 -q 0 -lowpass 18 --vbr-new -b 32
204
00:17:40,760 --> 00:17:44,878
- Ваш город прекрасен.
- Прекрасен. Но иногда еще и ужасен.
205
00:17:45,320 --> 00:17:48,312
Если желаете, могу вам показать
парочку мест,
206
00:17:48,760 --> 00:17:52,070
которые в противном случае
вы рискуете никогда не увидеть.
207
00:17:52,520 --> 00:17:56,069
- Вы поднимались на башню?
- Нет, я действительно не туристка.
208
00:17:56,520 --> 00:17:59,592
Так вы сноб. Поднимайтесь изредка
на Кампанилу
209
00:18:00,040 --> 00:18:04,397
в ясные дни. Сами увидите,
как там прекрасно.
210
00:18:04,840 --> 00:18:08,196
Оттуда открывается такой вид
на Венецию, которого вам больше
нигде не найти.
211
00:18:08,640 --> 00:18:10,392
Я приехала не ради видов на Венецию.
212
00:18:10,840 --> 00:18:15,436
Ах да! Вы здесь по делам.
Вы сказали, что вы переводчица.
213
00:18:15,880 --> 00:18:18,633
Да... Я переводчица.
214
00:18:19,680 --> 00:18:22,433
Мне нужно идти. До встречи.
215
00:18:22,880 --> 00:18:24,438
Надеюсь, еще свидимся.
216
00:18:25,840 --> 00:18:28,115
И не забывайте о Кампаниле.
217
00:18:35,240 --> 00:18:37,071
Вот.
218
00:18:38,480 --> 00:18:42,268
Не подскажите, что требуется
от немцев,
219
00:18:42,720 --> 00:18:45,075
желающих получить разрешение
на работу?



Скачать Рыжеволосая.Рыжая.Die.Rote.(Хельмут.Койтнер).[1962.драма.DVDRip].[Sub].torrent без регистрации
Золото ЗОЛОТАЯ РАЗДАЧА! СКАЧАННОЕ НЕ ЗАСЧИТЫВАЕТСЯ! Золото
Дата: Зарегистрирован   [ Тип: внутренний ] Как тут cкачать?
MAGNET ссылка
MAGNET ссылка


Скачать .torrent

20 KB

Статус: проверено DHT
Скачан: торрент - 138 раз, раздача полностью - 18 раз
Размер: 1014 MB
Оценка:  - (Голосов: 0)
Поблагодарили: 1
Поделиться ссылкой на эту раздачу с друзьями:
В контактеFacebookОдноклассникиTwitterLivejournalМой МирLiveinternet
 

 
Показать сообщения:    


Вы не можете начинать темы
Вы не можете отвечать на сообщения
Вы не можете редактировать свои сообщения
Вы не можете удалять свои сообщения
Вы не можете голосовать в опросах
Вы не можете прикреплять файлы к сообщениям
Вы можете скачивать файлы