Loading...
Error

Скачать Американский ниндзя 2: Схватка / American Ninja 2: The Confrontation (Сэм Фёрстенберг) [1987, боевик, драма, HDTVRip] [MVO] торрент без регистрации

 
Статистика раздачи
Размер:  1,46 GB   |    Скачан:  310 раз

Полного источника не было: 28 минут

 
Автор Сообщение

leon030982

[] 

Американский ниндзя 2: Схватка / American Ninja 2: The Confrontation

Страна: США
Жанр: боевик, драма
Год выпуска: 1987
Продолжительность: 01:25:54
Бюджет: $350 000
Рейтинг MMPA:
Перевод: Профессиональный (многоголосый закадровый) [СТС]
Cубтитры: нет
Режиссер: Сэм Фёрстенберг / Sam Firstenberg
В ролях: Майкл Дудикофф, Стив Джеймс, Ларри Поиндекстер, Гэри Конуэй, Джефф Челентано, Мишель Боутс, Майкл Стоун, Лен Спэрроухок, Джонатан Пиенаар, Билл Керри
Описание: Действие происходит на острове Святого Томаса в Карибском море, куда американский наемник Джо Армстронг и сержант Кертис Джексон прибывают для расследования таинственного исчезновения группы морских пехотинцев.
Очень скоро они натыкаются на следы чудовищной операции с наркотиками, руководимой могущественным наркодилером по прозвищу Лев. Он похитил пехотинцев, чтобы с помощью генетики создать из них бойцов — ниндзя.
Пара искателей приключений, на помощь к которым приходит дочь местного ученого Алисия Санборн, сражаются со Львом и его армией ниндзя, чтобы навсегда разрушить его дьявольскую империю…

Качество видео: HDTVRip [исходник HDTV 1080i]
Формат видео: AVI
Видео: Xvid, 720x400, 25 fps, 2224 kbps, 0.30 bit/pixel
Аудио: AC3 Dolby Digital, 48 kHz, 192 kbps, 2/0 (L,R) ch
General
Complete name : American.Ninja.2-The.Confrontation.1987.HDTVRip.Xvid.AC3-Zombie.Lee.avi
Format : AVI
Format/Info : Audio Video Interleave
File size : 1.46 GiB
Duration : 1h 25mn
Overall bit rate : 2 427 Kbps
Writing library : VirtualDub build 33790/release
Video
ID : 0
Format : MPEG-4 Visual
Format profile : Advanced Simple@L5
Format settings, BVOP : 1
Format settings, QPel : No
Format settings, GMC : No warppoints
Format settings, Matrix : Custom
Codec ID : XVID
Codec ID/Hint : XviD
Duration : 1h 25mn
Bit rate : 2 225 Kbps
Width : 720 pixels
Height : 400 pixels
Display aspect ratio : 16:9
Frame rate : 25.000 fps
Color space : YUV
Chroma subsampling : 4:2:0
Bit depth : 8 bits
Scan type : Progressive
Compression mode : Lossy
Bits/(Pixel*Frame) : 0.309
Stream size : 1.34 GiB (92%)
Writing library : XviD 64
Audio
ID : 1
Format : AC-3
Format/Info : Audio Coding 3
Mode extension : CM (complete main)
Codec ID : 2000
Duration : 1h 25mn
Bit rate mode : Constant
Bit rate : 192 Kbps
Channel(s) : 2 channels
Channel positions : Front: L R
Sampling rate : 48.0 KHz
Bit depth : 16 bits
Compression mode : Lossy
Stream size : 118 MiB (8%)
Alignment : Aligned on interleaves
Interleave, duration : 40 ms (1.00 video frame)
Interleave, preload duration : 512 ms



Скачать Американский.ниндзя.2.Схватка.American.Ninja.2.The.Confrontation.(Сэм.Фёрстенберг).[1987.боевик.драма.HDTVRip].[MVO].torrent без регистрации
Золото ЗОЛОТАЯ РАЗДАЧА! СКАЧАННОЕ НЕ ЗАСЧИТЫВАЕТСЯ! Золото
Дата: Зарегистрирован   [ Тип: внутренний ] Как тут cкачать?
MAGNET ссылка
MAGNET ссылка


Скачать .torrent

15 KB

Статус: проверено DHT
Скачан: торрент - 310 раз, раздача полностью - 244 раз
Размер: 1,46 GB
Оценка:  - (Голосов: 0)
Поблагодарили: 1
Поделиться ссылкой на эту раздачу с друзьями:
В контактеFacebookОдноклассникиTwitterLivejournalМой МирLiveinternet
 

 
Показать сообщения:    


Вы не можете начинать темы
Вы не можете отвечать на сообщения
Вы не можете редактировать свои сообщения
Вы не можете удалять свои сообщения
Вы не можете голосовать в опросах
Вы не можете прикреплять файлы к сообщениям
Вы можете скачивать файлы