Loading...
Error

Скачать Город женщин / La citta delle donne / City of Women (Федерико Феллини) [1980, трагикомическая притча, BDRip] [AVC] [MVO] торрент без регистрации

 
Статистика раздачи
Размер:  2,18 GB   |    Скачан:  143 раза
Сидов:  1  [  0 KB/s  ]  
 
Автор Сообщение

Marsianka

[] 

Город женщин / La cittђ delle donne / City of Women (1980) BDRip-AVC от PowerTracker

Жанр: трагикомическая притча
Страна: Франция , Италия
Режиссер: Федерико Феллини
В ролях: Марчелло Мастроянни, Анна Пруцнал, Бернис Стиджерс, Донателла Дамиани, Йоле Сильвани, Этторе Манни, Фьямметта Баралла, Hйlиne Calzarelli, Изабелль Канто Да Майя, Катрин Каррель

Сюжет фильма: Эротические сновидения стареющего ловеласа, искаженные грезы увядающих феминисток в калейдоскопе озорных и ироничных наблюдений великого киномастера. В поезде мужчина случайно знакомится с красивой женщиной и решает проводить ее домой. Это решение оказалось для героя роковым: он стал заложником в Городе Женщин. Здесь эмансипированные представительницы прекрасной половины человечества отстаивают свое право на главенствующее положение в этом мире.

«Город женщин» кинофильм режиссера Федерико Феллини, снятый в 1980 году. Не рекомендуется просмотр детям и подросткам моложе 16 лет.

Мировая премьера: 28 марта 1980



Продолжительность: 02:19:17
Качество видео: BDRip-AVC
Видео: кодек: x264, размер кадра: 1022х552, битрейт: 2044 кб/с, bit/pixel: 0.151
Аудио: язык: Русский , перевод: профессиональный многоголосый закадровый [R5], кодек: AC3 2.0, битрейт: 192.00 кб/с

&
«Город женщин» (а он оказался возможным благодаря второму, после «Репетиции оркестра», сотрудничеству Федерико Феллини с более молодым продюсером Ренцо Росселлини, а также с его двоюродным братом Франко Росселлини) можно представить как «мужской» вариант фильма «Джульетта и духи» и назвать, например, так: «Снапораз и сны&raquo. Потому что почти всё действие этой картины происходит во сне Снапораза, который едет в поезде. И он попадает в своих грёзах в некий город, где живут одни женщины.

Кроме того, две названные работы итальянского маэстро кино, разделённые между собой пятнадцатью годами, всё-таки объединяет почти уже не контролируемое буйство фантазии, заполняющей всё экранное пространство. Особая «сновиденческая» структура позволяет сделать это беспрепятственно, не требуя стройного сюжета. Барочные образы и экспрессивные видения накладываются друг на друга в хаотическом полёте воображения художника, превращаются в своеобразный «снежный ком», обрастающий всё новыми и новыми экстравагантными, эксцентричными, а подчас сюрреалистическими деталями. Пока он, как настоящая лавина, не обрушивается в финале, «подминая» под себя кого-то из растерявшихся зрителей, которые могли заблудиться в лабиринте снов или быть оглушёнными неистовством красок и звуков.

Если брать каждый фрагмент «Города женщин» в отдельности, то невозможно не удивляться неиссякаемой выдумке Федерико Феллини, способного преобразить своим гением на экране что угодно. Но на протяжении двух с лишним часов «фейерверка визуальных красот» мозг обычного зрителя утрачивает восприимчивость, устаёт от непосильной для него работы. Уже некогда задуматься над тем, что режиссёр, иронически воспроизводя мифический «город женщин», создаёт отнюдь не антифеминистскую ленту о господстве женщин над мужчинами, как и не был таким уж феминистским по духу фильм «Джульетта и духи&raquo. Ведь фактически Феллини высмеивает «подсознательные бредни» своего героя и в этом плане «Город женщин» перекликается с новеллой «Искушения доктора Антонио» из киноальманаха «Боккаччо 70», а также со сценой воображаемого гарема из картины «Восемь с половиной», тем более что основного персонажа вновь (спустя 17 лет) сыграл Марчелло Мастроянни.

1989
Общее
Уникальный идентификатор : 194459366389275221130662046778209878582 (0x924B82FCC6DA51A39889C4DBABCC4236)
Полное имя : D:La citta delle donne.1980.BDRip-AVC.PT.mkv
Формат : Matroska
Версия формата : Version 2
Размер файла : 2,18 Гбайт
Продолжительность : 2 ч. 19 м.
Общий поток : 2238 Кбит/сек
Название фильма : Город женщин / La cittђ delle donne / City of Women (1980) BDRip-AVC rip by rulya74
Дата кодирования : UTC 2012-02-12 07:20:13
Программа кодирования : mkvmerge v5.2.1 ('A Far Off Place') built on Jan 2 2012 23:21:10
Библиотека кодирования : libebml v1.2.3 + libmatroska v1.3.0

Видео
Идентификатор : 1
Формат : AVC
Формат/Информация : Advanced Video Codec
Профиль формата : High@L4.1
Параметр CABAC формата : Да
Параметр ReFrames формата : 9 кадров
Идентификатор кодека : V_MPEG4/ISO/AVC
Продолжительность : 2 ч. 19 м.
Битрейт : 2044 Кбит/сек
Ширина : 1022 пикселя
Высота : 552 пикселя
Соотношение сторон : 1,851
Частота кадров : 24,000 кадра/сек
Цветовое пространство : YUV
Субдискретизация насыщенности : 4:2:0
Битовая глубина : 8 бит
Тип развёртки : Прогрессивная
Бит/(Пиксели*Кадры) : 0.151
Размер потока : 1,95 Гбайт (89%)
Библиотека кодирования : x264 core 120 r2164 da19765
Настройки программы : cabac=1 / ref=9 / deblock=1:-3:-2 / analyse=0x3:0x113 / me=umh / subme=9 / psy=1 / psy_rd=1.00:0.00 / mixed_ref=1 / me_range=32 / chroma_me=1 / trellis=2 / 8x8dct=1 / cqm=0 / deadzone=21,11 / fast_pskip=1 / chroma_qp_offset=-2 / threads=3 / sliced_threads=0 / nr=0 / decimate=1 / interlaced=0 / bluray_compat=0 / constrained_intra=0 / bframes=8 / b_pyramid=2 / b_adapt=2 / b_bias=0 / direct=3 / weightb=1 / open_gop=0 / weightp=2 / keyint=240 / keyint_min=22 / scenecut=40 / intra_refresh=0 / rc=2pass / mbtree=0 / bitrate=2044 / ratetol=1.0 / qcomp=0.60 / qpmin=10 / qpmax=51 / qpstep=4 / cplxblur=20.0 / qblur=0.5 / ip_ratio=1.40 / pb_ratio=1.30 / aq=1:1.00
Default : Да
Forced : Нет

Аудио
Идентификатор : 2
Формат : AC-3
Формат/Информация : Audio Coding 3
Расширение режима : CM (complete main)
Идентификатор кодека : A_AC3
Продолжительность : 2 ч. 19 м.
Вид битрейта : Постоянный
Битрейт : 192 Кбит/сек
Каналы : 2 канала
Расположение каналов : Front: L R
Частота : 48,0 КГц
Битовая глубина : 16 бит
Метод сжатия : С потерями
Размер потока : 191 Мбайт (9%)
Заголовок : MVO [R5]
Язык : Russian
Default : Да
Forced : Нет

Меню
00:00:00.000 : :Chapter 01
00:11:54.165 : :Chapter 02
00:28:19.458 : :Chapter 03
00:38:28.583 : :Chapter 04
00:47:57.458 : :Chapter 05
00:58:45.166 : :Chapter 06
01:08:18.707 : :Chapter 07
01:20:58.500 : :Chapter 08
01:33:19.625 : :Chapter 09
01:46:26.375 : :Chapter 10
01:58:28.125 : :Chapter 11
02:12:14.875 : :Chapter 12



Скачать Город.женщин.La.citta.delle.donne.City.of.Women.(Федерико.Феллини).[1980.трагикомическая.притча.BDRip].[AVC].[MVO].torrent без регистрации
Золото ЗОЛОТАЯ РАЗДАЧА! СКАЧАННОЕ НЕ ЗАСЧИТЫВАЕТСЯ! Золото
Дата: Зарегистрирован   [ Тип: внутренний ] Как тут cкачать?
MAGNET ссылка
MAGNET ссылка


Скачать .torrent

11 KB

Статус: проверено DHT
Скачан: торрент - 143 раз, раздача полностью - 33 раз
Размер: 2,18 GB
Оценка:  - (Голосов: 0)
Поблагодарили: 2
Поделиться ссылкой на эту раздачу с друзьями:
В контактеFacebookОдноклассникиTwitterLivejournalМой МирLiveinternet
 

 
Показать сообщения:    


Вы не можете начинать темы
Вы не можете отвечать на сообщения
Вы не можете редактировать свои сообщения
Вы не можете удалять свои сообщения
Вы не можете голосовать в опросах
Вы не можете прикреплять файлы к сообщениям
Вы можете скачивать файлы