Loading...
Error

Скачать Не грози южному централу, попивая сок у себя в квартале / Don't Be a Menace to South Central While Drinking Your Juice in the Hood (Пэрис Барклай) [1996, комедия,пародия, HDTVRip] [AVO] (Павел Санаев) торрент без регистрации

 
Статистика раздачи
Размер:  749 MB   |    Скачан:  173 раза
Сидов:  1  [  0 KB/s  ]  
 
Автор Сообщение

leon030982

[] 

Не грози южному централу, попивая сок у себя в квартале / Don't Be a Menace to South Central While Drinking Your Juice in the Hood
Страна: США
Жанр: комедия,пародия
Год выпуска: 1996
Продолжительность: 01:24:56
Перевод: Авторский (одноголосый закадровый) (Павел Санаев)
Cубтитры: нет
Режиссер: Пэрис Барклай / Paris Barclay
В ролях: Шоун Уайанс, Марлон Уайанс, Трэйси Черелл, Джонс Крис, Спенсер Сули, МакКалло Даррел, Хит Хелен, Мартин Айзиа, Барнс Ламард, Дж. Тейт, Кинен Айвори Уайанс,Берни Мак,Антонио Фаргас...

Описание: Самые черные парни тусуются в Южном Централе, где травка всегда зеленеет, где о достоинствах человека судят по размеру его пейджера и где, чтобы быть достаточно крутым, надо быть старше своих родителей!

Доп. информация: «Не грози южному централу, попивая сок у себя в квартале» ( Don't Be a Menace to South Central While Drinking Your Juice in the Hood) — кинофильм США 1996 года, носящий сатирический и пародийный характер. Пародийность в основном направлена на фильмы «Ребята по соседству» (1991) Джона Синглтона, «Угроза для общества» (1993) Альберта и Аллена Хьюз, и «Пятница» (1995) Ф. Гэри Грея.

Качество видео: HDTVRip
Формат видео: AVI
Видео: Xvid 624x352 23.98fps 1095Kbps
Аудио: MPEG Audio Layer 3 48000Hz stereo 128Kbps
Format : AVI
Format/Info : Audio Video Interleave
File size : 749 MiB
Duration : 1h 24mn
Overall bit rate : 1 233 Kbps
Writing application : VirtualDubMod 1.5.10.2 (build 2540/release)
Writing library : VirtualDubMod build 2540/release
Video
ID : 0
Format : MPEG-4 Visual
Format profile : AdvancedSimple@L5
Format settings, BVOP : Yes
Format settings, QPel : No
Format settings, GMC : No warppoints
Format settings, Matrix : Default (H.263)
Codec ID : XVID
Codec ID/Hint : XviD
Duration : 1h 24mn
Bit rate : 1 096 Kbps
Width : 624 pixels
Height : 352 pixels
Display aspect ratio : 16:9
Frame rate : 23.976 fps
Resolution : 24 bits
Colorimetry : 4:2:0
Scan type : Progressive
Bits/(Pixel*Frame) : 0.208
Stream size : 666 MiB (89%)
Writing library : XviD 1.2.1 (UTC 2008-12-04)
Audio
ID : 1
Format : MPEG Audio
Format version : Version 1
Format profile : Layer 3
Codec ID : 55
Codec ID/Hint : MP3
Duration : 1h 24mn
Bit rate mode : Constant
Bit rate : 128 Kbps
Channel(s) : 2 channels
Sampling rate : 48.0 KHz
Resolution : 16 bits
Stream size : 77.8 MiB (10%)
Alignment : Aligned on interleaves
Interleave, duration : 42 ms (1.00 video frame)
Interleave, preload duration : 504 ms
Writing library : LAME3.98r
Encoding settings : -m s -V 4 -q 2 -lowpass 17 -b 128



Скачать Не.грози.южному.централу.попивая.сок.у.себя.в.квартале.Don't.Be.a.Menace.to.South.Central.While.Drinking.Your.Juice.in.the.Hood.(Пэрис.Барклай).[1996.комедия.пародия.HDTVRip].[AVO].(Павел.Санаев).torrent без регистрации
Золото ЗОЛОТАЯ РАЗДАЧА! СКАЧАННОЕ НЕ ЗАСЧИТЫВАЕТСЯ! Золото
Дата: Зарегистрирован   [ Тип: внутренний ] Как тут cкачать?
MAGNET ссылка
MAGNET ссылка


Скачать .torrent

30 KB

Статус: проверено DHT
Скачан: торрент - 173 раз, раздача полностью - 46 раз
Размер: 749 MB
Оценка:  - (Голосов: 0)
Поблагодарили: 1
Поделиться ссылкой на эту раздачу с друзьями:
В контактеFacebookОдноклассникиTwitterLivejournalМой МирLiveinternet
 

 
Показать сообщения:    


Вы не можете начинать темы
Вы не можете отвечать на сообщения
Вы не можете редактировать свои сообщения
Вы не можете удалять свои сообщения
Вы не можете голосовать в опросах
Вы не можете прикреплять файлы к сообщениям
Вы можете скачивать файлы