Loading...
Error

Скачать Любовь на троих / L'amour aux trousses (Филипп де Шоврон) [2005, мелодрама, комедия, криминал, DVDRip] [DVO] R5 торрент без регистрации

 
Статистика раздачи
Размер:  745 MB   |    Скачан:  110 раз
Сидов:  1  [  0 KB/s  ]  
 
Автор Сообщение

leon030982

[] 

Любовь на троих / L'amour aux trousses
Страна: Франция
Жанр: мелодрама, комедия, криминал
Год выпуска: 2005
Продолжительность: 01:28:53
Перевод: Профессиональный (двухголосый закадровый) R5
Cубтитры: нет
Режиссер: Филипп де Шоврон / Philippe de Chauveron
В ролях: Жан Дюжарден, Паскаль Эльбе, Катарина Мурино, Франсуа Леванталь, Клод Брассер, Кирилл Лекомте, Патрик Рокка, Жан-Люк Порра
Описание: Близкие друзья Поль и Франк работают в полиции. К тому же они напарники. Они делят все между собой: свою радость и горе, а также и жену Поля, конечно без его ведома.
Однажды, во время операции по поимке опасного преступника, Поль случайно узнает об измене своей жены с близким другом. Тут-то и начинаются проблемы. Как поведет себя Франк, зная, что Пол может пристрелить его в любую минуту? И как поведет себя Поль, зная о предательстве своего друга?


Качество видео: DVDRip (Исходник DVD5 R5)
Формат видео: AVI
Видео: XviD, 672x368 (1.83:1), 25 fps, 1037 Kbps
Аудио: MP3 2.0, 48 KHz, 128 Kbps
General
Complete name : Q:\torrent\Blue-ray\Release\L'amour aux trousses. DVDRip.avi
Format : AVI
Format/Info : Audio Video Interleave
File size : 745 MiB
Duration : 1h 28mn
Overall bit rate : 1 172 Kbps
Writing application : VirtualDubMod 1.5.4.1 (build 2178/release)
Writing library : VirtualDubMod build 2178/release
Video
ID : 0
Format : MPEG-4 Visual
Format profile : Advanced Simple@L5
Format settings, BVOP : 1
Format settings, QPel : No
Format settings, GMC : No warppoints
Format settings, Matrix : Custom
Codec ID : XVID
Codec ID/Hint : XviD
Duration : 1h 28mn
Bit rate : 1 037 Kbps
Width : 672 pixels
Height : 368 pixels
Display aspect ratio : 16:9
Frame rate : 25.000 fps
Color space : YUV
Chroma subsampling : 4:2:0
Bit depth : 8 bits
Scan type : Progressive
Compression mode : Lossy
Bits/(Pixel*Frame) : 0.168
Stream size : 659 MiB (88%)
Writing library : XviD 1.2.1 (UTC 2008-12-04)
Audio
ID : 1
Format : MPEG Audio
Format version : Version 1
Format profile : Layer 3
Mode : Joint stereo
Mode extension : MS Stereo
Codec ID : 55
Codec ID/Hint : MP3
Duration : 1h 28mn
Bit rate mode : Constant
Bit rate : 128 Kbps
Channel(s) : 2 channels
Sampling rate : 48.0 KHz
Compression mode : Lossy
Stream size : 81.4 MiB (11%)
Alignment : Aligned on interleaves
Interleave, duration : 80 ms (2.00 video frames)
Interleave, preload duration : 504 ms
Writing library : LAME3.98r
Encoding settings : -m j -V 4 -q 2 -lowpass 17 -b 128



Скачать Любовь.на.троих.L'amour.aux.trousses.(Филипп.де.Шоврон).[2005.мелодрама.комедия.криминал.DVDRip].[DVO].R5.torrent без регистрации
Золото ЗОЛОТАЯ РАЗДАЧА! СКАЧАННОЕ НЕ ЗАСЧИТЫВАЕТСЯ! Золото
Дата: Зарегистрирован   [ Тип: внутренний ] Как тут cкачать?
MAGNET ссылка
MAGNET ссылка


Скачать .torrent

15 KB

Статус: проверено DHT
Скачан: торрент - 110 раз, раздача полностью - 1 раз
Размер: 745 MB
Оценка:  - (Голосов: 0)
Поблагодарили: 1
Поделиться ссылкой на эту раздачу с друзьями:
В контактеFacebookОдноклассникиTwitterLivejournalМой МирLiveinternet
 

 
Показать сообщения:    


Вы не можете начинать темы
Вы не можете отвечать на сообщения
Вы не можете редактировать свои сообщения
Вы не можете удалять свои сообщения
Вы не можете голосовать в опросах
Вы не можете прикреплять файлы к сообщениям
Вы можете скачивать файлы