Loading...
Error

Скачать Заложница / Taken (Пьер Морель) [2008, боевик, триллер, драма, криминал, BDRip] [Dub] торрент без регистрации

 
Статистика раздачи
Размер:  2,69 GB   |    Скачан:  190 раз
Сидов:  1  [  0 KB/s  ]  
 
Автор Сообщение

Marsianka

[] 

Заложница / Taken (2008) BDRip

Страна: Франция
Жанр: боевик, триллер, драма, криминал
Год выпуска: 2008
Продолжительность: 01:33:24

Перевод: Профессиональный (дублированный)
Cубтитры: русские полные, русские форсированные (на надписи, на французскую и арабскую речь), английские - отдельно
Оригинальная аудиодорожка: английский

Режиссер: Пьер Морель / Pierre Morel

В ролях: Лиам Нисон, Мэгги Грэйс, Лиленд Орсер, Джон Гриз, Дэвид Уоршофски, Холли Вэлэнс, Кэти Кэссиди, Ксандер Беркли, Оливье Рабурден, Фамке Янссен и др.

Описание: Молодую девушку похитили во время туристического отдыха. Её отец пускается в опасное приключение-спасение, чтобы вернуть дочь и наказать виновных лично.



Качество видео: BDRip(Исх. BDRemux)
Формат видео: AVI

Видео: 720x304 (2.37:1), 23.976 fps, XviD MPEG-4 ~1990 kbps avg, 0.38 bit/pixel
Аудио: 48 kHz, AC3 Dolby Digital, 3/2 (L,C,R,l,r) + LFE ch, ~448 kbps DUB
Аудио: 48 kHz, AC3 Dolby Digital, 3/2 (L,C,R,l,r) + LFE ch, ~448 kbps Гаврилов
Аудио: 48 kHz, AC3 Dolby Digital, 3/2 (L,C,R,l,r) + LFE ch, ~448 kbps Сербин
************************************************************
Отдельно:
Аудио: 48 kHz, AC3 Dolby Digital, 3/2 (L,C,R,l,r) + LFE ch, ~320 kbps MVO
Аудио: 48 kHz, AC3 Dolby Digital, 3/2 (L,C,R,l,r) + LFE ch, ~448 kbps ENG
Формат субтитров: softsub (SRT)
File: Zaloghnica.chopper887.avi
Title: Zaloghnica.chopper887
Author: chopper887
Genre: Action/Thriller
Category: Movie
Filesize: 2240.30 Mb ( 2 349 121 536 bytes )
Play length: 01:33:24.640 (134377 frames)
Subtitles: eng, rus.forced, rus (SubRip format)
Video: 720x304 (2.37:1), 23.976 fps, XviD MPEG-4 ~1990 kbps avg, 0.38 bit/pixel
Audio #1: 48 kHz, AC3 Dolby Digital, 3/2 (L,C,R,l,r) + LFE ch, ~448 kbps
Audio #2: 48 kHz, AC3 Dolby Digital, 3/2 (L,C,R,l,r) + LFE ch, ~448 kbps
Audio #3: 48 kHz, AC3 Dolby Digital, 3/2 (L,C,R,l,r) + LFE ch, ~448 kbps
General
Complete name : L:Zaloghnica.chopper887Zaloghnica.chopper887.avi
Format : AVI
Format/Info : Audio Video Interleave
File size : 2.19 GiB
Duration : 1h 33mn
Overall bit rate : 3 353 Kbps
Movie name : Zaloghnica.chopper887
Director : chopper887
Genre : Action/Thriller
Writing application : VirtualDubMod 1.5.10.2 (build 2540/release)
Original source form/Name : Movie

Video
ID : 0
Format : MPEG-4 Visual
Format profile : AdvancedSimple@L5
Format settings, BVOP : Yes
Format settings, QPel : No
Format settings, GMC : No warppoints
Format settings, Matrix : Custom
Codec ID : XVID
Codec ID/Hint : XviD
Duration : 1h 33mn
Bit rate : 1 992 Kbps
Width : 720 pixels
Height : 304 pixels
Display aspect ratio : 2.35:1
Frame rate : 23.976 fps
Resolution : 24 bits
Colorimetry : 4:2:0
Scan type : Progressive
Bits/(Pixel*Frame) : 0.380
Stream size : 1.30 GiB (59%)
Writing library : XviD 1.2.1 (UTC 2008-12-04)

Audio #1
ID : 1
Format : AC-3
Format/Info : Audio Coding 3
Codec ID : 2000
Duration : 1h 33mn
Bit rate mode : Constant
Bit rate : 448 Kbps
Channel(s) : 6 channels
Channel positions : Front: L C R, Surround: L R, LFE
Sampling rate : 48.0 KHz
Stream size : 299 MiB (13%)
Alignment : Split accross interleaves
Interleave, duration : 42 ms (1.00 video frame)
Interleave, preload duration : 500 ms

Audio #2
ID : 2
Format : AC-3
Format/Info : Audio Coding 3
Codec ID : 2000
Duration : 1h 33mn
Bit rate mode : Constant
Bit rate : 448 Kbps
Channel(s) : 6 channels
Channel positions : Front: L C R, Surround: L R, LFE
Sampling rate : 48.0 KHz
Stream size : 299 MiB (13%)
Alignment : Split accross interleaves
Interleave, duration : 42 ms (1.00 video frame)
Interleave, preload duration : 500 ms

Audio #3
ID : 3
Format : AC-3
Format/Info : Audio Coding 3
Codec ID : 2000
Duration : 1h 33mn
Bit rate mode : Constant
Bit rate : 448 Kbps
Channel(s) : 6 channels
Channel positions : Front: L C R, Surround: L R, LFE
Sampling rate : 48.0 KHz
Stream size : 299 MiB (13%)
Alignment : Split accross interleaves
Interleave, duration : 42 ms (1.00 video frame)
Interleave, preload duration : 500 ms



Скачать Заложница.Taken.(Пьер.Морель).[2008.боевик.триллер.драма.криминал.BDRip].[Dub].torrent без регистрации
Золото ЗОЛОТАЯ РАЗДАЧА! СКАЧАННОЕ НЕ ЗАСЧИТЫВАЕТСЯ! Золото
Дата: Зарегистрирован   [ Тип: внутренний ] Как тут cкачать?
MAGNET ссылка
MAGNET ссылка


Скачать .torrent

14 KB

Статус: проверено DHT
Скачан: торрент - 190 раз, раздача полностью - 178 раз
Размер: 2,69 GB
Оценка:  5 (Голосов: 2)
Поблагодарили: 4
Поделиться ссылкой на эту раздачу с друзьями:
В контактеFacebookОдноклассникиTwitterLivejournalМой МирLiveinternet
 

 
Показать сообщения:    


Вы не можете начинать темы
Вы не можете отвечать на сообщения
Вы не можете редактировать свои сообщения
Вы не можете удалять свои сообщения
Вы не можете голосовать в опросах
Вы не можете прикреплять файлы к сообщениям
Вы можете скачивать файлы