Loading...
Error

Скачать Ангел тьмы / Темный ангел / Я пришёл с миром / Dark Angel (Крэйг Р. Баксли) [1990, фантастика, боевик, HDTVRip] [AVO] + 2х[MVO] + [DVO] торрент без регистрации

 
Статистика раздачи
Размер:  1,97 GB   |    Скачан:  126 раз

Полного источника не было: 1 год 7 месяцев

 
Автор Сообщение

leon030982

[] 

Ангел тьмы / Темный ангел /Я пришёл с миром / / Dark Angel / Версия 16:9
Страна: США
Жанр: фантастика, боевик
Год выпуска: 1990
Продолжительность: 01:31:40
Перевод: Авторский (одноголосый закадровый) А.Гаврилов
Cубтитры: английские
Оригинальная аудиодорожка: английский - отдельно
Режиссер: Крэйг Р. Баксли

В ролях: Дольф Лундгрен, Брайан Бенбен, Бетси Брэнтли, Маттиас Хьюз, Джей Билас, Джим Хейни, Дэвид Экройд, Шерман Ховард, Сэм Андерсон, Марк Ловенталь

Описание: Во время операции по задержанию наркоторговцев полицейский Джек Кейн теряет напарника и начинает расследование серии странных смертей - жертвы гибнут от невероятно большой дозы героина, хотя и не являются наркоманами. Вместе с приставленным к нему напыщенным агентом ФБР Джек приходит к удивительному выводу: убийца никто иной, как инопланетный преступник, буквально выкачивающий мозг у своих жертв. Но может ли человек победить пришельца?

Качество видео: HDTVRip (Исх. HDTVRip 720)
Формат видео: AVI
Видео: 720x400 (1.80:1), 23.976 fps, XviD build 50 ~2074 kbps avg, 0.30 bit/pixel
Аудио: 48 kHz, AC3 Dolby Digital, 2/0 (L,R) ch, ~192 kbps А.Гаврилов
**************************************************
Отдельным файлом
Аудио: AC3 1.0 160 Kbps 48,0 КГц(Нева-1 СПБ)
Аудио: AC3 1.0 128 Kbps 48,0 КГц(НТВ+)
Аудио: AC3 1.0 128 Kbps 48,0 КГц(РЕН ТВ)
Аудио: AC3 2.0 384 Kbps 48,0 КГц(Оригинал)
Формат субтитров: softsub (SRT)
File: Dark.Angel.chopper887.avi
Title: Dark.Angel.chopper887
Author: chopper887
Filesize: 1492.07 Mb ( 1 564 545 024 bytes )
Play length: 01:31:38.451 (131831 frames)
Subtitles: Present (SubRip format)
Video: 720x400 (1.80:1), 23.976 fps, XviD build 50 ~2074 kbps avg, 0.30 bit/pixel
Audio: 48 kHz, AC3 Dolby Digital, 2/0 (L,R) ch, ~192 kbps
General
Complete name : L:\Dark.Angel.chopper887\Dark.Angel.chopper887.avi
Format : AVI
Format/Info : Audio Video Interleave
File size : 1.46 GiB
Duration : 1h 31mn
Overall bit rate : 2 276 Kbps
Movie name : Dark.Angel.chopper887
Director : chopper887
Writing application : VirtualDubMod 1.5.10.2 (build 2540/release)
Video
ID : 0
Format : MPEG-4 Visual
Format profile : AdvancedSimple@L5
Format settings, BVOP : Yes
Format settings, QPel : No
Format settings, GMC : No warppoints
Format settings, Matrix : Default (H.263)
Codec ID : XVID
Codec ID/Hint : XviD
Duration : 1h 31mn
Bit rate : 2 075 Kbps
Width : 720 pixels
Height : 400 pixels
Display aspect ratio : 16:9
Frame rate : 23.976 fps
Resolution : 24 bits
Colorimetry : 4:2:0
Scan type : Progressive
Bits/(Pixel*Frame) : 0.300
Stream size : 1.33 GiB (91%)
Writing library : XviD 1.2.1 (UTC 2008-12-04)
Audio
ID : 1
Format : AC-3
Format/Info : Audio Coding 3
Codec ID : 2000
Duration : 1h 31mn
Bit rate mode : Constant
Bit rate : 192 Kbps
Channel(s) : 2 channels
Channel positions : L R
Sampling rate : 48.0 KHz
Stream size : 126 MiB (8%)
Alignment : Split accross interleaves
Interleave, duration : 42 ms (1.00 video frame)
Interleave, preload duration : 500 ms



Скачать Ангел.тьмы.Темный.ангел.Я.пришёл.с.миром.Dark.Angel.(Крэйг.Р.Баксли).[1990.фантастика.боевик.HDTVRip].[AVO].+.2х[MVO].+.[DVO].torrent без регистрации
Золото ЗОЛОТАЯ РАЗДАЧА! СКАЧАННОЕ НЕ ЗАСЧИТЫВАЕТСЯ! Золото
Дата: Зарегистрирован   [ Тип: внутренний ] Как тут cкачать?
MAGNET ссылка
MAGNET ссылка


Скачать .torrent

21 KB

Статус: проверено
Скачан: торрент - 126 раз, раздача полностью - 9 раз
Размер: 1,97 GB
Оценка:  - (Голосов: 0)
Поблагодарили: 3
Поделиться ссылкой на эту раздачу с друзьями:
В контактеFacebookОдноклассникиTwitterLivejournalМой МирLiveinternet
 

 
Показать сообщения:    


Вы не можете начинать темы
Вы не можете отвечать на сообщения
Вы не можете редактировать свои сообщения
Вы не можете удалять свои сообщения
Вы не можете голосовать в опросах
Вы не можете прикреплять файлы к сообщениям
Вы можете скачивать файлы